Duch 3D Poltergeist *2015*[48FPS] [Theatrical Cut][1080p 3D Half Over Under DTS HD MA 7 1 AC3 BluRay x264 LEON 345] [Lektor i napisy PL] torrent

 
Duch 3D  Poltergeist *2015*[48FPS] [Theatrical Cut][1080p 3D Half Over Under DTS HD MA 7 1 AC3 BluRay x264 LEON 345] [Lektor i napisy PL] torrent


Pozycję wystawił:
Ishimura
Dodano:06.05.2017
Kategoria:3D
Rozmiar:18.84 GB
Seedów:2
Peerów:2
Pobrań:1795
pobierz torrent

Duch 3D Poltergeist *2015*[48FPS] [Theatrical Cut][1080p 3D Half
Over Under DTS HD MA 7 1 AC3 BluRay x264 LEON 345] [Lektor i napisy
PL] torrent


Duch 3D - Poltergeist *2015*(48FPS) (Theatrical Cut)PL 3D.Half.Over-Under.1080p.BDRip - Leon 345
==============================================
!!!!!!!!!!!!!48 FPS !!!!!!!!!!!!!!!!!!!!!!!!!
==============================================
Film w wersji 3D Over-Under
Do odtworzenia filmu WYMAGANY odpowiedni sprzęt (TV 3D).

gatunek: Horror
produkcja: USA
premiera: 29 maja 2015 (Polska) 20 maja 2015 (świat)
reżyseria: Gil Kenan
scenariusz: David Lindsay-Abaire

http://filmweb.pl/film/Poltergeist-2015-266532
http://imdb.com/title/tt1029360

Remake kultowego horroru z 1982 r.
Rodzina z trojgiem dzieci przeprowadza się na spokojne przedmieścia, do pozornie zwykłego domu, który stopniowo zaczyna odkrywać swą mroczną tajemnicę. Kolejne niepokojące znaki stają się zaproszeniem do rzeczywistości dużo bardziej przerażającej niż najgorszy sen. Związany z domem duch poltergeist wykorzystuje przeciwko rodzinie jej największe lęki i porywa najmłodszą córkę do równoległego świata, z którego nie ma ucieczki. Ostateczna konfrontacja z potężnym poltergeistem wydaje się z góry przegrana. Aby go pokonać, bohaterowie będą musieli zrozumieć naturę zła, z którym mają do czynienia. Czy wezwany na pomoc egzorcysta ocali rodzinę, zanim będzie za późno?

Obsada:

Sam Rockwell ... Eric Bowen
Rosemarie DeWitt ... Amy Bowen
Saxon Sharbino ... Kendra Bowen
Kyle Catlett ... Griffin Bowen
Kennedi Clements ... Madison Bowen
Jared Harris ... Carrigan Burke
Jane Adams ... Dr Brooke Powell
Susan Heyward ... Sophie

General

Complete name :Poltergeist.2015.3D.HOU.1080p.BDRip.48FPS.Leon345.mkv
Format : Matroska
Format version : Version 4 / Version 2
File size : 18.8 GiB
Duration : 1h 33mn
Overall bit rate mode : Variable
Overall bit rate : 28.8 Mbps
Encoded date : UTC 2015-09-20 21:05:01
Writing application : mkvmerge v8.3.0 ('Over the Horizon') 64bit
Writing library : libebml v1.3.1 + libmatroska v1.4.2

Video
ID : 1
Format : AVC
Format/Info : Advanced Video Codec
Format profile : High@L4.1
Format settings, CABAC : Yes
Format settings, ReFrames : 4 frames
Codec ID : V_MPEG4/ISO/AVC
Duration : 1h 33mn
Nominal bit rate : 22.5 Mbps
Width : 1 920 pixels
Height : 1 080 pixels
Display aspect ratio : 16:9(OAR 2.39:1)
Frame rate mode : Constant
Frame rate : 47.923 fps
Original frame rate : 47.952 fps
Color space : YUV
Chroma subsampling : 4:2:0
Bit depth : 8 bits
Scan type : Progressive
Bits/(Pixel*Frame) : 0.227
Writing library : x264
Encoding settings : cabac=1 / ref=4 / deblock=1:-1:-1 / rc=2pass
Default : Yes
Forced : No

Audio #1
ID : 2
Format : AC-3
Format/Info : Audio Coding 3
Mode extension : CM (complete main)
Format settings, Endianness : Big
Codec ID : A_AC3
Duration : 1h 33mn
Bit rate mode : Constant
Bit rate : 448 Kbps
Channel(s) : 6 channels
Channel positions : Front: L C R, Side: L R, LFE
Sampling rate : 48.0 KHz
Bit depth : 16 bits
Compression mode : Lossy
Stream size : 300 MiB (2%)
Title : AC3 5.1
Language : Polish
Default : Yes
Forced : Yes

Audio #2
ID : 3
Format : AC-3
Format/Info : Audio Coding 3
Mode extension : CM (complete main)
Format settings, Endianness : Big
Codec ID : A_AC3
Duration : 1h 33mn
Bit rate mode : Constant
Bit rate : 640 Kbps
Channel(s) : 6 channels
Channel positions : Front: L C R, Side: L R, LFE
Sampling rate : 48.0 KHz
Bit depth : 16 bits
Compression mode : Lossy
Stream size : 429 MiB (2%)
Title : AC3 5.1
Language : English
Default : No
Forced : No

Audio #3
ID : 4
Format : DTS
Format/Info : Digital Theater Systems
Format profile : MA / Core
Mode : 16
Format settings, Endianness : Big
Codec ID : A_DTS
Duration : 1h 33mn
Bit rate mode : Variable
Bit rate : 5141 / 1 509 Kbps
Channel(s) : 8 channels / 6 channels
Channel positions : Front: L C R, Side: L R, Back: L R, LFE / Front: L C R, Side: L R, LFE
Sampling rate : 48.0 KHz
Bit depth : 24 bits
Compression mode : Lossless / Lossy
Title : DTS-HD MA 7.1
Language : English
Default : No
Forced : No

Text #1
ID : 5
Format : PGS
Muxing mode : zlib
Codec ID : S_HDMV/PGS
Codec ID/Info : The same subtitle format used on BDs/HD-DVDs
Title : napisy 3D
Language : Polish
Default : No
Forced : No

Text #2
ID : 6
Format : PGS
Muxing mode : zlib
Codec ID : S_HDMV/PGS
Codec ID/Info : The same subtitle format used on BDs/HD-DVDs
Title : Napisy 3D
Language : English
Default : No
Forced : No

Menu
00:00:00.000 : en:(01)00:00:00:000
00:04:57.338 : en:(02)00:04:57:338
00:07:30.533 : en:(03)00:07:30:533
00:11:23.224 : en:(04)00:11:23:224
00:15:28.510 : en:(05)00:15:28:510
00:17:31.008 : en:(06)00:17:31:008
00:21:27.786 : en:(07)00:21:27:786
00:24:58.663 : en:(08)00:24:58:663
00:28:59.529 : en:(09)00:28:59:529
00:31:19.252 : en:(10)00:31:19:252
00:35:33.214 : en:(11)00:35:33:214
00:40:14.620 : en:(12)00:40:14:620
00:43:16.135 : en:(13)00:43:16:135
00:47:00.651 : en:(14)00:47:00:651
00:53:27.996 : en:(15)00:53:27:996
00:57:47.839 : en:(16)00:57:47:839
01:00:02.015 : en:(17)01:00:02:015
01:02:35.918 : en:(18)01:02:35:918
01:05:33.679 : en:(19)01:05:33:679
01:09:02.513 : en:(20)01:09:02:513
01:12:32.890 : en:(21)01:12:32:890
01:18:19.403 : en:(22)01:18:19:403
01:22:52.884 : en:(23)01:22:52:884
01:27:49.681 : en:(24)01:27:49:681

Source [thx]:
V -Poltergeist.2015.1080p.3D.BluRay.AVC.DTS-HD.MA.7.1-RARBG
A -Poltergeist (2015) [2-in-1: Theatrical & Extended Cut] Blu-ray CEE 1080p AVC DTS 5.1
 


Aby dodać komentarz należy się zalogować

Logowanie logowanie

Twoja ocena
Podobne torrenty
Spirit - Duch Miasta / The Spirit (2008) DVDRip XviD [lektor pl]    Ghostbusters Pogromcy duchów - Ghostbusters *2016* [TC] [BDRip] [XviD-KiT] [Lektor PL]    Duch w dom - sezon 1 [2010][TVRip XviD][PL][FS]    Głodne duchy / The Hungry Ghosts (2009) [DVDRip XVID AC3-Kata][ENG][p@czos]

Spirit - Duch Miasta / The Spirit (2008) DVDRip.XviD   [lektor pl]

Ghostbusters. Pogromcy duchów - Ghostbusters *2016* [TC] [BDRip] [XviD-KiT] [Lektor PL]

Duch w dom - sezon 1 [2010][TVRip.XviD][PL][FS]

Głodne duchy  / The Hungry Ghosts (2009) [DVDRip.XVID.AC3-Kata][ENG][p@czos]




Shoutbox (zawartość shoutboxa widoczna dla zalogowanych użytkowników)


Żaden z plików nie znajduje się na serwerze. Torrenty są własnością użytkowników. Administrator serwisu nie może ponieść konsekwencji za to co użytkownicy wstawiają, lub za to co czynią na stronie. Nie możesz używać tego serwisu do rozpowszechniania lub ściągania materiałów do których nie masz odpowiednich praw lub licencji. Użytkownicy odpowiedzialni są za przestrzeganie tych zasad. profil torrentcity.pl