Żółwik Sammy 3D: W 50 lat dookoła świata Sammy's avonturen: De geheime doorgang *2010* [48FPS] [1080p 3D Half Over Under DTS HD MA 5 1 AC3 BluRay x264 LEON 345] [Dubbing PL] torrent

 
Żółwik Sammy 3D: W 50 lat dookoła świata  Sammy's avonturen: De geheime doorgang *2010* [48FPS] [1080p 3D Half Over Under DTS HD MA 5 1 AC3 BluRay x264 LEON 345] [Dubbing PL] torrent


Pozycję wystawił:
Ishimura
Dodano:06.05.2017
Kategoria:3D
Rozmiar:17.27 GB
Seedów:2
Peerów:0
Pobrań:4
pobierz torrent

Żółwik Sammy 3D: W 50 lat dookoła świata Sammy's avonturen:
De geheime doorgang *2010* [48FPS] [1080p 3D Half Over Under DTS HD
MA 5 1 AC3 BluRay x264 LEON 345] [Dubbing PL] torrent


Żółwik Sammy : W 50 lat dookoła świata 3D - Sammy's avonturen: De geheime doorgang *2010*PL DUB 3D.Half.Over-Under.1080p.BDRip(48FPS)Leon 345
============================================
!!!!!!!!!!!!!48 FPS !!!!!!!!!!!!!!!!!!!!!!!!!
============================================
Film w wersji 3D Over-Under
Do odtworzenia filmu WYMAGANY odpowiedni sprzęt (TV 3D).
-----------------------------------------------------

Produkcja: Belgia
Gatunek: Animacja, Przygodowy
Data premiery: 4 sierpnia 2010
Reżyseria: Ben Stassen
Scenariusz: Domonic Paris

http://www.imdb.com/title/tt1230204/

Czyż nie byłoby cudowne podróżować po całym świecie? Sammy jest uroczym, małym żółwiem morskim. Nie jest superbohaterem, lecz zwyczajnym żółwiem, który przeżywa niesamowite przygody. Urodzony w 1959 roku na kalifornijskiej plaży, przez 50 lat podróżuje po oceanach. Podczas swojej długiej wędrówki odkrywa świat i naraża się na wiele niebezpieczeństw. Zostaje maskotką społeczności hippisowskiej, mierzy się z plamą ropy i jest świadkiem wodowania statku kosmicznego Apollo II na Oceanie Spokojnym. Sammy musi stawić czoło przeciwnym nurtom, przypływom i odpływom oraz upływającym latom, by odnaleźć Karolę, miłość swojego życia, którą utracił na plaży, gdzie się urodzili. Jest odważny, ma upodobanie do przygód i potrafi sprostać najtrudniejszym wyzwaniom. Nie boi się walczyć, jest lojalnym przyjacielem, ufa swoim instynktom – jednym słowem, jest żółwim optymistą.

Isabelle Fuhrman - Shelly (głos)
Jenny McCarthy - (głos)
Tim Curry - (głos)
Kathy Griffin - (głos)
Melanie Griffith - (głos)
Anthony Anderson - (głos)
Ed Begley Jr. - (głos)
Stacy Keach - (głos)
Heather Trzyna - Młoda Sally (głos)
Billy Unger - Sammy (głos)

General

Format : Matroska
Format version : Version 4 / Version 2
File size : 17.3 GiB
Duration : 1h 25mn
Overall bit rate mode : Variable
Overall bit rate : 28.9 Mbps
Movie name : Sammys.Adventures.The.Secret.Passage.2010.3D.HOU.1080p.BDRip.48FPS.Leon345
Encoded date : UTC 2015-09-30 12:12:43
Writing application : mkvmerge v8.3.0 ('Over the Horizon') 64bit
Writing library : libebml v1.3.1 + libmatroska v1.4.2
Attachment : Yes

Video
ID : 1
Format : AVC
Format/Info : Advanced Video Codec
Format profile : High@L4.1
Format settings, CABAC : Yes
Format settings, ReFrames : 4 frames
Codec ID : V_MPEG4/ISO/AVC
Duration : 1h 25mn
Nominal bit rate : 24.0 Mbps
Width : 1 920 pixels
Height : 1 080 pixels
Display aspect ratio : 16:9 (1.78:1)
Frame rate mode : Constant
Frame rate : 47.923 fps
Original frame rate : 47.952 fps
Color space : YUV
Chroma subsampling : 4:2:0
Bit depth : 8 bits
Scan type : Progressive
Bits/(Pixel*Frame) : 0.242
Writing library : x264
Encoding settings : cabac=1 / ref=4 / deblock=1:-1:-1 / rc=2pass
Default : Yes
Forced : No

Audio #1
ID : 2
Format : AC-3
Format/Info : Audio Coding 3
Mode extension : CM (complete main)
Format settings, Endianness : Big
Codec ID : A_AC3
Duration : 1h 25mn
Bit rate mode : Constant
Bit rate : 448 Kbps
Channel(s) : 6 channels
Channel positions : Front: L C R, Side: L R, LFE
Sampling rate : 48.0 KHz
Bit depth : 16 bits
Compression mode : Lossy
Stream size : 274 MiB (2%)
Title : AC3 5.1 DUB PL
Language : Polish
Default : Yes
Forced : Yes

Audio #2
ID : 3
Format : AC-3
Format/Info : Audio Coding 3
Mode extension : CM (complete main)
Format settings, Endianness : Big
Codec ID : A_AC3
Duration : 1h 25mn
Bit rate mode : Constant
Bit rate : 640 Kbps
Channel(s) : 6 channels
Channel positions : Front: L C R, Side: L R, LFE
Sampling rate : 48.0 KHz
Bit depth : 16 bits
Compression mode : Lossy
Stream size : 392 MiB (2%)
Title : AC3 5.1
Language : English
Default : No
Forced : No

Audio #3
ID : 4
Format : DTS
Format/Info : Digital Theater Systems
Mode : 16
Format settings, Endianness : Big
Codec ID : A_DTS
Duration : 1h 25mn
Bit rate mode : Constant
Bit rate : 1 509 Kbps
Channel(s) : 6 channels
Channel positions : Front: L C R, Side: L R, LFE
Sampling rate : 48.0 KHz
Bit depth : 16 bits
Compression mode : Lossy
Stream size : 924 MiB (5%)
Title : DTS 5.1
Language : English
Default : No
Forced : No

Audio #4
ID : 5
Format : DTS
Format/Info : Digital Theater Systems
Format profile : MA / Core
Mode : 16
Format settings, Endianness : Big
Codec ID : A_DTS
Duration : 1h 25mn
Bit rate mode : Variable
Bit rate : 2304 / 1 509 Kbps
Channel(s) : 6 channels
Channel positions : Front: L C R, Side: L R, LFE
Sampling rate : 48.0 KHz
Bit depth : 16 bits
Compression mode : Lossless / Lossy
Title : DTS-HD MA 5.1
Language : French
Default : No
Forced : No

Source :
A/V- BD3D
Dubbing PL - DVDRip
 


Aby dodać komentarz należy się zalogować

Logowanie logowanie

Twoja ocena
Podobne torrenty
Żółwik Sammy 2 / Sammys Adventures 2 *2012* [DVDRip XviD-EXViD] [ENG] [jans12]    Żółwik Sammy 2 / Sammys Adventures 2 *2012* [DVDRip XviD-EXViD] [ENG] [jans12]    Żółwik Sammy 2 / Sammys Adventures 2 *2012* [720p] [BluRay x264-VeDeTT] [ENG] [jans12]    Żółwik Sammy / Sammy's avonturen: De geheime doorgang (2010) [DVDRiP XviD-REViVE][DUBBLING PL-KiNO][p@czos]

Żółwik Sammy 2 / Sammys Adventures 2 *2012* [DVDRip.XviD-EXViD] [ENG] [jans12]

Żółwik Sammy 2 / Sammys Adventures 2  *2012*  [DVDRip.XviD-EXViD] [ENG] [jans12]

Żółwik Sammy 2 / Sammys Adventures 2 *2012* [720p] [BluRay.x264-VeDeTT] [ENG] [jans12]

Żółwik Sammy / Sammy\'s avonturen: De geheime doorgang (2010) [DVDRiP.XviD-REViVE][DUBBLING PL-KiNO][p@czos]




Shoutbox (zawartość shoutboxa widoczna dla zalogowanych użytkowników)


Żaden z plików nie znajduje się na serwerze. Torrenty są własnością użytkowników. Administrator serwisu nie może ponieść konsekwencji za to co użytkownicy wstawiają, lub za to co czynią na stronie. Nie możesz używać tego serwisu do rozpowszechniania lub ściągania materiałów do których nie masz odpowiednich praw lub licencji. Użytkownicy odpowiedzialni są za przestrzeganie tych zasad. profil torrentcity.pl