Jurassic World 3D *2015* [1080p 3D Half Over Under AC3 BluRay x264 LEON 345] [Lektor i napisy PL] torrent

 
Jurassic World 3D *2015* [1080p 3D Half Over Under AC3 BluRay x264 LEON 345] [Lektor i napisy PL] torrent


Pozycję wystawił:
Ishimura
Dodano:06.05.2017
Kategoria:3D
Rozmiar:7.64 GB
Seedów:3
Peerów:1
Pobrań:8138
pobierz torrent

Jurassic World 3D *2015* [1080p 3D Half Over Under AC3 BluRay x264
LEON 345] [Lektor i napisy PL] torrent


Jurassic World *2015*PL 3D.Half.Over-Under.1080p.BDRip.Leon 345
============================================
Film w wersji 3D Over-Under
Do odtworzenia filmu WYMAGANY odpowiedni sprzęt (TV 3D).
-----------------------------------------------------

http://i1365.photobucket.com/albums/r749/leon3456/JurassicWorld.3D_zpspeqx1ee3.jpg

Produkcja: USA
Gatunek: Akcja | Przygodowy | Sci-Fi | Thriller
Czas trwania: 124 min.
Premiera: 12.06.2015 - Polska, 29.05.2015 - Świat
Reżyseria: Colin Trevorrow
Scenariusz: Derek Connolly Colin Trevorrow Rick Jaffa Amanda Silver

http://www.imdb.com/title/tt0369610/

Rok 2015. Od wydarzeń ukazanych w "Parku jurajskim" mija 22 lata. Wyspa Isla Nublar wyposażona jest w pełni działający park rozrywki, w którym żyją przywrócone za pomocą klonowania dinozaury. Pewnego dnia prowadzący eksperymenty naukowcy tworzą zupełnie nowego dinozaura, który posiada cechy dwóch gadów: welociraptora i tyranozaura. Wszystko idzie zgodnie z planem do czasu, gdy stwór wymyka się z parku.

Obsada:

Chris Pratt .... Owen Grady
Bryce Dallas Howard .... Claire Dearing
Irrfan Khan .... Simon Masrani
Vincent D`Onofrio .... Vic Hoskins
Ty Simpkins .... Gray
Nick Robinson .... Zach
Jake Johnson .... Lowery
Omar Sy .... Barry

General

Format : Matroska
Format version : Version 4 / Version 2
File size : 7.64 GiB
Duration : 2h 4mn
Overall bit rate : 8 791 Kbps
Movie name : Jurassic.World.2015.PL.1080p.3D.HOU.BDRip.Leon345
Encoded date : UTC 2015-10-03 17:17:58
Writing application : mkvmerge v8.3.0 ('Over the Horizon') 64bit
Writing library : libebml v1.3.1 + libmatroska v1.4.2

Video
ID : 1
Format : AVC
Format/Info : Advanced Video Codec
Format profile : High@L4.1
Format settings, CABAC : Yes
Format settings, ReFrames : 4 frames
Codec ID : V_MPEG4/ISO/AVC
Duration : 2h 4mn
Bit rate : 7 849 Kbps
Width : 1 920 pixels
Height : 1 080 pixels
Display aspect ratio : 16:9 (OAR 2.00:1)
Frame rate mode : Constant
Frame rate : 23.976 fps
Color space : YUV
Chroma subsampling : 4:2:0
Bit depth : 8 bits
Scan type : Progressive
Bits/(Pixel*Frame) : 0.158
Stream size : 6.71 GiB (88%)
Writing library : x264
Encoding settings : cabac=1 / ref=4 / rc=2pass
Default : Yes
Forced : No

Audio #1
ID : 2
Format : AC-3
Format/Info : Audio Coding 3
Mode extension : CM (complete main)
Format settings, Endianness : Big
Codec ID : A_AC3
Duration : 2h 4mn
Bit rate mode : Constant
Bit rate : 448 Kbps
Channel(s) : 6 channels
Channel positions : Front: L C R, Side: L R, LFE
Sampling rate : 48.0 KHz
Bit depth : 16 bits
Compression mode : Lossy
Stream size : 399 MiB (5%)
Title : AC3 5.1 Lektor PL
Language : Polish
Default : Yes
Forced : Yes

Audio #2
ID : 3
Format : AC-3
Format/Info : Audio Coding 3
Mode extension : CM (complete main)
Format settings, Endianness : Big
Codec ID : A_AC3
Duration : 2h 4mn
Bit rate mode : Constant
Bit rate : 448 Kbps
Channel(s) : 6 channels
Channel positions : Front: L C R, Side: L R, LFE
Sampling rate : 48.0 KHz
Bit depth : 16 bits
Compression mode : Lossy
Stream size : 399 MiB (5%)
Title : AC3 5.1
Language : English
Default : No
Forced : No

Text #1
ID : 4
Format : PGS
Muxing mode : zlib
Codec ID : S_HDMV/PGS
Codec ID/Info : The same subtitle format used on BDs/HD-DVDs
Title : Napisy 3D
Language : Polish
Default : No
Forced : No

Text #2
ID : 5
Format : PGS
Muxing mode : zlib
Codec ID : S_HDMV/PGS
Codec ID/Info : The same subtitle format used on BDs/HD-DVDs
Title : napisy 3D
Language : English
Default : No
Forced : No

Menu
00:00:00.000 : en:(01)00:00:00:000
00:06:59.168 : en:(02)00:06:59:168
00:11:01.827 : en:(03)00:11:01:827
00:18:28.440 : en:(04)00:18:28:440
00:25:34.866 : en:(05)00:25:34:866
00:31:20.837 : en:(06)00:31:20:837
00:39:23.861 : en:(07)00:39:23:861
00:44:07.853 : en:(08)00:44:07:853
00:48:57.225 : en:(09)00:48:57:225
00:55:51.056 : en:(10)00:55:51:056
01:01:21.344 : en:(11)01:01:21:344
01:09:50.561 : en:(12)01:09:50:561
01:15:25.479 : en:(13)01:15:25:479
01:23:51.860 : en:(14)01:23:51:860
01:30:14.700 : en:(15)01:30:14:700
01:36:45.424 : en:(16)01:36:45:424
01:41:15.652 : en:(17)01:41:15:652
01:47:35.282 : en:(18)01:47:35:282
01:53:06.029 : en:(19)01:53:06:029
01:55:37.555 : en:(20)01:55:37:555
02:04:23.205 : en:(21)02:04:23:205



Source :
A/V-Jurassic World (2015) Blu-ray 3D EUR 1080p AVC DTS 5.1-HDCLUB
Lektor PL - BD CEE
 


Aby dodać komentarz należy się zalogować

Logowanie logowanie

Twoja ocena
Podobne torrenty
Jurassic World (2015) [PAL] [DVD5] [Lektor i Napisy PL]    Jurassic Park IV - Jurassic World *2015* [720p] [BluRay] [DTS] [x264-KiT] [Lektor PL]    Park Jurajski: Trylogia - Jurassic Park: Ultimate Trilogy [1993-2001] [1080p Bluray DTS m2ts [Napisy i Lektor PL]    Jurassic City *2015* [480p] [BRRip] [AC3] [XviD-B89] [Lektor PL]

Jurassic World (2015) [PAL] [DVD5] [Lektor i Napisy PL]

Jurassic Park IV - Jurassic World *2015* [720p] [BluRay] [DTS] [x264-KiT] [Lektor PL]

Park Jurajski: Trylogia - Jurassic Park: Ultimate Trilogy [1993-2001] [1080p.Bluray.DTS.m2ts [Napisy i Lektor PL]

Jurassic City *2015* [480p] [BRRip] [AC3] [XviD-B89] [Lektor PL]




Shoutbox (zawartość shoutboxa widoczna dla zalogowanych użytkowników)


Żaden z plików nie znajduje się na serwerze. Torrenty są własnością użytkowników. Administrator serwisu nie może ponieść konsekwencji za to co użytkownicy wstawiają, lub za to co czynią na stronie. Nie możesz używać tego serwisu do rozpowszechniania lub ściągania materiałów do których nie masz odpowiednich praw lub licencji. Użytkownicy odpowiedzialni są za przestrzeganie tych zasad. profil torrentcity.pl