Strażnicy Galaktyki 3D Guardians of the Galaxy *2014* [IMAX EDITION] [1080p 3D Half Over Under DTS HD MA 7 1 AC3 Custom BluRay x264 LEON 345] [Lektor Dubbing i Napisy PL] torrent

 
Strażnicy Galaktyki 3D  Guardians of the Galaxy *2014* [IMAX EDITION] [1080p 3D Half Over Under DTS HD MA 7 1 AC3 Custom BluRay x264 LEON 345] [Lektor Dubbing i Napisy PL] torrent


Pozycję wystawił:
Ishimura
Dodano:06.05.2017
Kategoria:3D
Rozmiar:17.05 GB
Seedów:0
Peerów:1
Pobrań:0
pobierz torrent

Strażnicy Galaktyki 3D Guardians of the Galaxy *2014* [IMAX
EDITION] [1080p 3D Half Over Under DTS HD MA 7 1 AC3 Custom BluRay
x264 LEON 345] [Lektor Dubbing i Napisy PL] torrent


Strażnicy Galaktyki 3D - Guardians of the Galaxy [IMAX EDITION]*2014*PL 3D.Half.Over-Under.1080p.BDRip.DTS 5.1.Custom - Leon 345
==============================================

Film w wersji 3D Over-Under
Do odtworzenia filmu WYMAGANY odpowiedni sprzęt (TV 3D).
==============================================

Produkcja: USA
Gatunek: Akcja, Sci-Fi
Czas trwania: 120 min.
Premiera: 01.08.2014 - Polska, 21.07.2014 - Świat
Reżyseria: James Gunn
Scenariusz:James Gunn , Nicole Perlman

http://www.imdb.com/title/tt2015381

Zuchwały awanturnik Peter Quill kradnie tajemniczy artefakt stanowiący obiekt pożądania złego i potężnego Ronana, którego ambicje zagrażają całemu wszechświatowi. Chcąc uniknąć gniewu Ronana, Quill zmuszony jest zawrzeć niewygodny sojusz z czterema niemającymi nic do stracenia outsiderami: Rocketem ? uzbrojonym szopem, Grootem drzewokształtnym humanoidem, śmiertelnie niebezpieczną i tajemniczą Gamorą i żądnym zemsty Draxem Niszczycielem. Kiedy główny bohater odkrywa prawdziwą moc artefaktu i zagrożenie, jakie stanowi on dla kosmosu, musi zmobilizować swoich niesubordynowanych towarzyszy do ostatniej bitwy, od której zależą losy galaktyki.

Obsada:

Chris Pratt ... Peter Quill
Dave Bautista ... Drax the Destroyer
Zoe Saldana ... Gamora
Vin Diesel ... Groot (głos)
Bradley Cooper ... Rocket Raccoon (głos)
Karen Gillan ... Nebula
Lee Pace ... Ronan the Accuser
Michael Rooker ... Yondu Udonta
Benicio Del Toro ... Taneleer Tivan / The Collector
Djimon Hounsou ... Korath the Pursuer

General

Format : Matroska
Format version : Version 4 / Version 2
File size : 17.0 GiB
Duration : 2h 0mn
Overall bit rate mode : Variable
Overall bit rate : 20.2 Mbps
Movie name : Guardians.Of.The.Galaxy.2014.3D.HOU.BDRip.DTS.Custom.Leon345
Encoded date : UTC 2015-10-07 10:47:16
Writing application : mkvmerge v8.3.0 ('Over the Horizon') 64bit
Writing library : libebml v1.3.1 + libmatroska v1.4.2

Video
ID : 1
Format : AVC
Format/Info : Advanced Video Codec
Format profile : High@L4.1
Format settings, CABAC : Yes
Format settings, ReFrames : 4 frames
Codec ID : V_MPEG4/ISO/AVC
Duration : 2h 0mn
Nominal bit rate : 12.1 Mbps
Width : 1 920 pixels
Height : 1 080 pixels
Display aspect ratio : 16:9 (2.40:1 , 1.78:1)
Frame rate mode : Constant
Frame rate : 23.976 fps
Color space : YUV
Chroma subsampling : 4:2:0
Bit depth : 8 bits
Scan type : Progressive
Bits/(Pixel*Frame) : 0.243
Writing library : x264
Encoding settings : cabac=1 / ref=4 / rc=2pass
Default : Yes
Forced : No

Audio #1
ID : 2
Format : AC-3
Format/Info : Audio Coding 3
Mode extension : CM (complete main)
Format settings, Endianness : Big
Codec ID : A_AC3
Duration : 2h 0mn
Bit rate mode : Constant
Bit rate : 640 Kbps
Channel(s) : 6 channels
Channel positions : Front: L C R, Side: L R, LFE
Sampling rate : 48.0 KHz
Bit depth : 16 bits
Compression mode : Lossy
Stream size : 553 MiB (3%)
Title : AC3 5.1 Lektor PL Custom
Language : Polish
Default : Yes
Forced : Yes

Audio #2
ID : 3
Format : AC-3
Format/Info : Audio Coding 3
Mode extension : CM (complete main)
Format settings, Endianness : Big
Codec ID : A_AC3
Duration : 2h 0mn
Bit rate mode : Constant
Bit rate : 640 Kbps
Channel(s) : 6 channels
Channel positions : Front: L C R, Side: L R, LFE
Sampling rate : 48.0 KHz
Bit depth : 16 bits
Compression mode : Lossy
Stream size : 553 MiB (3%)
Title : AC3 5.1 Dubbing PL
Language : Polish
Default : No
Forced : No

Audio #3
ID : 4
Format : AC-3
Format/Info : Audio Coding 3
Mode extension : CM (complete main)
Format settings, Endianness : Big
Codec ID : A_AC3
Duration : 2h 0mn
Bit rate mode : Constant
Bit rate : 640 Kbps
Channel(s) : 6 channels
Channel positions : Front: L C R, Side: L R, LFE
Sampling rate : 48.0 KHz
Bit depth : 16 bits
Compression mode : Lossy
Stream size : 553 MiB (3%)
Title : AC3 5.1
Language : English
Default : No
Forced : No

Audio #4
ID : 5
Format : DTS
Format/Info : Digital Theater Systems
Mode : 16
Format settings, Endianness : Big
Codec ID : A_DTS
Duration : 2h 0mn
Bit rate mode : Constant
Bit rate : 1 510 Kbps
Channel(s) : 6 channels
Channel positions : Front: L C R, Side: L R, LFE
Sampling rate : 48.0 KHz
Bit depth : 24 bits
Compression mode : Lossy
Stream size : 1.27 GiB (7%)
Title : DTS 5.1 Lektor PL Custom
Language : Polish
Default : No
Forced : No

Audio #5
ID : 6
Format : DTS
Format/Info : Digital Theater Systems
Format profile : MA / Core
Mode : 16
Format settings, Endianness : Big
Codec ID : A_DTS
Duration : 2h 0mn
Bit rate mode : Variable
Bit rate : 4617 / 1 509 Kbps
Channel(s) : 8 channels / 6 channels
Channel positions : Front: L C R, Side: L R, Back: L R, LFE / Front: L C R, Side: L R, LFE
Sampling rate : 48.0 KHz
Bit depth : 24 bits
Compression mode : Lossless / Lossy
Title : DTS-HD MA 7.1
Language : English
Default : No
Forced : No

Text #1
ID : 7
Format : PGS
Muxing mode : zlib
Codec ID : S_HDMV/PGS
Codec ID/Info : The same subtitle format used on BDs/HD-DVDs
Title : Napisy 3D
Language : Polish
Default : No
Forced : No

Text #2
ID : 8
Format : PGS
Muxing mode : zlib
Codec ID : S_HDMV/PGS
Codec ID/Info : The same subtitle format used on BDs/HD-DVDs
Title : Napisy 3D
Language : English
Default : No
Forced : No

Source: [Thx]
A/V - Guardians of the Galaxy (2014) [IMAX Edition] Blu-ray 3D EUR 1080p AVC DD5.1-NiP
Dubbing PL - BD
Lektor PL - TV custom 5.1 Leon 345
 


Aby dodać komentarz należy się zalogować

Logowanie logowanie

Twoja ocena
Podobne torrenty
Strażnicy Galaktyki - Guardians of the Galaxy *2014* [BRRip] [XviD-KiT] [Dubbing PL] [AgusiQ]    Strażnicy marzeń / Rise of the Guardians *2012* [BRRIP] [AC3] [XviD-Avatar1210] [Dubbing PL]    Strażnicy marzeń / Rise of the Guardians *2012* [DVDSCR] [XviD-sC0rp] [ENG]    Strażnicy marzeń / Rise of the Guardians *2012* [480p] [BRRip] [XviD] [AC3-CWNC] [Dubbing PL]

Strażnicy Galaktyki - Guardians of the Galaxy *2014* [BRRip] [XviD-KiT] [Dubbing PL] [AgusiQ]

Strażnicy marzeń / Rise of the Guardians *2012* [BRRIP] [AC3] [XviD-Avatar1210] [Dubbing PL]

Strażnicy marzeń / Rise of the Guardians *2012* [DVDSCR] [XviD-sC0rp] [ENG]

Strażnicy marzeń / Rise of the Guardians *2012* [480p] [BRRip] [XviD] [AC3-CWNC] [Dubbing PL]




Shoutbox (zawartość shoutboxa widoczna dla zalogowanych użytkowników)


Żaden z plików nie znajduje się na serwerze. Torrenty są własnością użytkowników. Administrator serwisu nie może ponieść konsekwencji za to co użytkownicy wstawiają, lub za to co czynią na stronie. Nie możesz używać tego serwisu do rozpowszechniania lub ściągania materiałów do których nie masz odpowiednich praw lub licencji. Użytkownicy odpowiedzialni są za przestrzeganie tych zasad. profil torrentcity.pl