Terminator: Genisys 3D *2015* [48FPS] [1080p 3D Half Over Under DTS 5 1 BluRay x264 LEON 345] [Lektor i napisy PL] torrent

 
Terminator: Genisys 3D *2015* [48FPS] [1080p 3D Half Over Under DTS 5 1 BluRay x264 LEON 345] [Lektor i napisy PL] torrent


Pozycję wystawił:
Ishimura
Dodano:06.05.2017
Kategoria:3D
Rozmiar:22.60 GB
Seedów:2
Peerów:0
Pobrań:0
pobierz torrent

Terminator: Genisys 3D *2015* [48FPS] [1080p 3D Half Over Under DTS
5 1 BluRay x264 LEON 345] [Lektor i napisy PL] torrent


Terminator: Genisys *2015*PL 3D.Half.Over-Under.1080p.BDRip(48FPS)DTS 5.1 - Leon 345
==================================================
Film w wersji 3D Over-Under.
Do odtworzenia filmu WYMAGANY odpowiedni sprzęt (TV 3D).
==============================================
!!!!!!!!!!!!!48 FPS !!!!!!!!!!!!!!!!!!!!!!!!!
==============================================

Produkcja: USA
Gatunek: Akcja , Sci-Fi
Czas trwania: 125 min.
Premiera: 01.07.2015 - Polska , 21.06.2015 - Świat
Reżyseria: Alan Taylor
Scenariusz: Laeta Kalogridis , Patrick Lussier

http://imdb.com/title/tt1340138

Niedaleka przyszłość. W roku 2029 John Connor stoi na czele podziemia, walcząc z zagrażającymi ludzkości cyborgami. W tej nierównej walce musi zmierzyć się z siłami przeszłości i … przyszłości. Aby zapewnić sobie życie, wysyła w przeszłość zaufanego porucznika Kyle'a Reese'a, który musi uratować matkę Connora przed śmiercią. Ale to, czego się dowiaduje, zmienia wszystko. Oprócz Ziemi A i Ziemi B istnieje jeszcze jedno uniwersum – C, które ma stać się miejscem dla ludzkości. Tymczasem SkyNet szykuje się do najpotężniejszej wojny w dziejach. Wojny, której celem jest zgładzenie gatunku ludzkiego.

Obsada:

Arnold Schwarzenegger - Terminator
Jason Clarke - John Connor
Emilia Clarke - Sarah Connor
Jai Courtney - Kyle Reese
J.K. Simmons - O'Brien
Dayo Okeniyi - Danny Dyson
Matt Smith - Alex
Courtney B. Vance - Miles Dyson

General

Format : Matroska
Format version : Version 4 / Version 2
File size : 22.6 GiB
Duration : 2h 5mn
Overall bit rate mode : Variable
Overall bit rate : 25.7 Mbps
Movie name : Terminator.Genisys.2015.PL.3D.HOU.BDRip(48FPS)Leon345
Encoded date : UTC 2015-10-13 16:09:41
Writing application : mkvmerge v8.3.0 ('Over the Horizon') 64bit
Writing library : libebml v1.3.1 + libmatroska v1.4.2

Video
ID : 1
Format : AVC
Format/Info : Advanced Video Codec
Format profile : High@L4.1
Format settings, CABAC : Yes
Format settings, ReFrames : 4 frames
Codec ID : V_MPEG4/ISO/AVC
Duration : 2h 5mn
Nominal bit rate : 20.1 Mbps
Width : 1 920 pixels
Height : 1 080 pixels
Display aspect ratio : 16:9 (OAR 2.39:1)
Frame rate mode : Constant
Frame rate : 47.923 fps
Original frame rate : 47.952 fps
Color space : YUV
Chroma subsampling : 4:2:0
Bit depth : 8 bits
Scan type : Progressive
Bits/(Pixel*Frame) : 0.202
Writing library : x264 core xz2390gh88**$$
Encoding settings : cabac=1 / ref=4 / rc=2pass
Default : Yes
Forced : No

Audio #1
ID : 2
Format : AC-3
Format/Info : Audio Coding 3
Mode extension : CM (complete main)
Format settings, Endianness : Big
Codec ID : A_AC3
Duration : 2h 5mn
Bit rate mode : Constant
Bit rate : 384 Kbps
Channel(s) : 6 channels
Channel positions : Front: L C R, Side: L R, LFE
Sampling rate : 48.0 KHz
Bit depth : 16 bits
Compression mode : Lossy
Stream size : 345 MiB (1%)
Title : AC3 5.1 Lektor PL
Language : Polish
Default : Yes
Forced : Yes

Audio #2
ID : 3
Format : AC-3
Format/Info : Audio Coding 3
Mode extension : CM (complete main)
Format settings, Endianness : Big
Codec ID : A_AC3
Duration : 2h 5mn
Bit rate mode : Constant
Bit rate : 640 Kbps
Channel(s) : 6 channels
Channel positions : Front: L C R, Side: L R, LFE
Sampling rate : 48.0 KHz
Bit depth : 16 bits
Compression mode : Lossy
Stream size : 575 MiB (2%)
Title : AC3 5.1
Language : English
Default : No
Forced : No

Audio #3
ID : 4
Format : DTS
Format/Info : Digital Theater Systems
Mode : 16
Format settings, Endianness : Big
Codec ID : A_DTS
Duration : 2h 5mn
Bit rate mode : Constant
Bit rate : 1 510 Kbps
Channel(s) : 6 channels
Channel positions : Front: L C R, Side: L R, LFE
Sampling rate : 48.0 KHz
Bit depth : 24 bits
Compression mode : Lossy
Stream size : 1.33 GiB (6%)
Title : DTS 5.1
Language : English
Default : No
Forced : No

Audio #4
ID : 5
Format : FLAC
Format/Info : Free Lossless Audio Codec
Codec ID : A_FLAC
Duration : 2h 5mn
Bit rate mode : Variable
Channel(s) : 6 channels
Channel positions : Front: L C R, Back: L R, LFE
Sampling rate : 48.0 KHz
Bit depth : 24 bits
Title : FLAC 5.1 (from TRUEHD)
Writing library : Lavf56.40.101
Language : English
Default : No
Forced : No

Text #1
ID : 6
Format : PGS
Muxing mode : zlib
Codec ID : S_HDMV/PGS
Codec ID/Info : The same subtitle format used on BDs/HD-DVDs
Title : Napisy 3D
Language : Polish
Default : No
Forced : No

Text #2
ID : 7
Format : PGS
Muxing mode : zlib
Codec ID : S_HDMV/PGS
Codec ID/Info : The same subtitle format used on BDs/HD-DVDs
Title : Napisy 3D
Language : English
Default : No
Forced : No

Menu
00:00:00.000 : en:(01)00:00:00:000
00:07:40.334 : en:(02)00:07:40:334
00:14:20.734 : en:(03)00:14:20:734
00:20:31.563 : en:(04)00:20:31:563
00:27:48.416 : en:(05)00:27:48:416
00:34:54.801 : en:(06)00:34:54:801
00:41:02.626 : en:(07)00:41:02:626
00:46:28.786 : en:(08)00:46:28:786
00:53:05.515 : en:(09)00:53:05:515
01:01:00.239 : en:(10)01:01:00:239
01:08:22.556 : en:(11)01:08:22:556
01:14:43.812 : en:(12)01:14:43:812
01:21:31.261 : en:(13)01:21:31:261
01:31:01.706 : en:(14)01:31:01:706
01:38:42.750 : en:(15)01:38:42:750
01:45:41.084 : en:(16)01:45:41:084
01:52:48.970 : en:(17)01:52:48:970
01:58:00.114 : en:(18)01:58:00:114
02:05:42.743 : en:(19)02:05:42:743
 


Aby dodać komentarz należy się zalogować

Logowanie logowanie

Twoja ocena
Podobne torrenty
Terminator: Ocalenie - Terminator Salvation *2009* [DVDRip XviD-iMBT][ENG][NAPISY PL][2 CD][4 SERVERY po 200 MB][AgusiQ]    Terminator: Kroniki Sary Connor S02E05 *2008* [DVDRip] [Rmvb] Lektor PL]    Terminator: Genisys (2015) [BDRip] [XviD-KiT] [Lektor PL]    Terminator: Ocalenie - Terminator Salvation *2009* [DDC LiNE PROPER XViD-LSD][ENG][NAPISY PL]

Terminator: Ocalenie - Terminator Salvation *2009* [DVDRip.XviD-iMBT][ENG][NAPISY PL][2 CD][4 SERVERY po 200 MB][AgusiQ]

Terminator: Kroniki Sary Connor S02E05 *2008* [DVDRip] [Rmvb] Lektor PL]

Terminator: Genisys (2015) [BDRip] [XviD-KiT] [Lektor PL]

Terminator: Ocalenie - Terminator Salvation *2009* [DDC.LiNE.PROPER.XViD-LSD][ENG][NAPISY PL]




Shoutbox (zawartość shoutboxa widoczna dla zalogowanych użytkowników)


Żaden z plików nie znajduje się na serwerze. Torrenty są własnością użytkowników. Administrator serwisu nie może ponieść konsekwencji za to co użytkownicy wstawiają, lub za to co czynią na stronie. Nie możesz używać tego serwisu do rozpowszechniania lub ściągania materiałów do których nie masz odpowiednich praw lub licencji. Użytkownicy odpowiedzialni są za przestrzeganie tych zasad. profil torrentcity.pl