Mały Książę 3D The Little Prince *2015* [mini HD 1080p 3D Half Over Under AC3 BluRay x264 SONDA] [Dubbing PL] torrent

 
Mały Książę 3D  The Little Prince *2015* [mini HD 1080p 3D Half Over Under AC3 BluRay x264 SONDA] [Dubbing PL] torrent


Pozycję wystawił:
Ishimura
Dodano:06.05.2017
Kategoria:3D
Rozmiar:3.98 GB
Seedów:0
Peerów:0
Pobrań:0

Mały Książę 3D The Little Prince *2015* [mini HD 1080p 3D Half
Over Under AC3 BluRay x264 SONDA] [Dubbing PL] torrent


Film w wersji 3D Over-Under.
Do odtworzenia filmu WYMAGANY odpowiedni sprzęt (TV 3D)
=========================================

Kopia mini-HD 1080p = 3,98 GB

gatunek: Animacja,Fantasy,Przygodowy
produkcja: Francja
premiera: 7 sierpnia 2015 (Polska) 22 maja 2015 (świat)
reżyseria: Mark Osborne
scenariusz: Irena Brignull,Bob Persichetti

http://www.imdb.com/title/tt1754656/

Obsada:

Bernard Lewandowski ... Mały Książę
Aleksandra Kowalicka ... Mała dziewczynka
Włodzimierz Press ... Pilot
Anna Cieślak ... Róża
Antoni Pawlicki ... Lis
Robert Więckiewicz ... Wąż
Małgorzata Kożuchowska ... Matka
Piotr Adamczyk ... Próżny/Policjant z korpoplanety

Opis:

Mała Dziewczynka zaprzyjaźnia się z ekscentrycznym staruszkiem z sąsiedztwa, który przedstawia się jako Pilot. Nowy znajomy opowiada jej o niezwykłym świecie, gdzie wszystko jest możliwe. Świecie, do którego dawno temu zaprosił go przyjaciel - Mały Książę. Tak zaczyna się magiczna i pełna przygód podróż Dziewczynki do krainy jej własnej wyobraźni i do bajkowego uniwersum Małego Księcia.

Storyline:

From Mark Osborne comes the first-ever animated feature film adaptation of Antoine de Saint-Exupéry's iconic masterpiece, The Little Prince. At the heart of it all is The Little Girl, who's being prepared by her mother for the very grown-up world in which they live - only to be interrupted by her eccentric, kind-hearted neighbor, The Aviator. The Aviator introduces his new friend to an extraordinary world where anything is possible. A world that he himself was initiated into long ago by The Little Prince. It's here that The Little Girl's magical and emotional journey into her own imagination - and into the universe of The Little Prince - begins. And it's where The Little Girl rediscovers her childhood and learns that ultimately, it's human connections that matter most, and that what's truly essential can only be seen with the heart.

Screenshot:

http://i.imgur.com/ADdLYZH.jpg
http://i.imgur.com/OMj3nFV.jpg
http://i.imgur.com/D1dUdU9.jpg
http://i.imgur.com/yZFzDhE.jpg


General
Format : Matroska
Format version : Version 2
File size : 3.98 GiB
Duration : 1h 46mn
Overall bit rate : 5 351 Kbps
Movie name : The_Little_Prince_3D.Bluray3D Rip by Sonda [AT-Team]
Encoded date : UTC 2015-12-04 10:19:38
Writing application : mkvmerge v5.7.0 ('The Whirlwind') built on Jul 8 2012 20:08:51
Writing library : libebml v1.2.3 + libmatroska v1.3.0

Video
ID : 1
Format : AVC
Format/Info : Advanced Video Codec
Format profile : High@L4.1
Format settings, CABAC : Yes
Format settings, ReFrames : 2 frames
Codec ID : V_MPEG4/ISO/AVC
Duration : 1h 46mn
Bit rate : 4 605 Kbps
Width : 1 920 pixels
Height : 1 080 pixels
Display aspect ratio : 16:9 (2.35:1)
Frame rate mode : Constant
Frame rate : 23.976 fps
Color space : YUV
Chroma subsampling : 4:2:0
Bit depth : 8 bits
Scan type : Progressive
Bits/(Pixel*Frame) : 0.093
Stream size : 3.43 GiB (86%)
Title : Rip by Sonda
Writing library : x264 core
Default : Yes
Forced : No
Color primaries : BT.709
Transfer characteristics : BT.709
Matrix coefficients : BT.709

Audio
ID : 2
Format : AC-3
Format/Info : Audio Coding 3
Mode extension : CM (complete main)
Format settings, Endianness : Big
Codec ID : A_AC3
Duration : 1h 46mn
Bit rate mode : Constant
Bit rate : 640 Kbps
Channel count : 6 channels
Channel positions : Front: L C R, Side: L R, LFE
Sampling rate : 48.0 KHz
Bit depth : 16 bits
Compression mode : Lossy
Stream size : 488 MiB (12%)
Title : AC3 5.1 Dubbing PL
Language : Polish
Default : Yes
Forced : No

Menu
00:00:00.000 : en:(01)00:00:00:000
00:06:11.329 : en:(02)00:06:11:329
00:16:06.423 : en:(03)00:16:06:423
00:22:35.312 : en:(04)00:22:35:312
00:32:19.228 : en:(05)00:32:19:228
00:38:04.824 : en:(06)00:38:04:824
00:43:55.132 : en:(07)00:43:55:132
00:49:36.306 : en:(08)00:49:36:306
00:57:30.321 : en:(09)00:57:30:321
01:08:32.691 : en:(10)01:08:32:691
01:14:05.816 : en:(11)01:14:05:816
01:20:31.201 : en:(12)01:20:31:201
01:27:21.402 : en:(13)01:27:21:402
01:39:05.481 : en:(14)01:39:05:481
01:46:34.137 : en:(15)01:46:34:137

Source:
V-The.Little.Prince.2015.1080p.3D.BluRay.AVC.TrueHD.7.1-RARBG
Dubbing PL - BD
Thanks - Sonda
 


Aby dodać komentarz należy się zalogować

Logowanie logowanie

Twoja ocena
Podobne torrenty
Tupot małych stóp[2006](DUBBING PL)DVDRipXviD [skuli]    Tupot Małych Stóp 2 / Happy Feet Two [3D] [Over-Under] [mini-HD] [1080p] [BRRip] [x264 AC3-LEON 345] [Dubbing PL] [TC] [Martinez25]    Mały Nowy Jork - Staten Island *2009* [DVDRip] [RMVB] [Lektor PL]mikael75    Sawa Mały wielki bohater - Savva Serdtse voina 2015 [BDRip XviD-KLiO] [Dubbing PL]

Tupot małych stóp[2006](DUBBING PL)DVDRipXviD  [skuli]

Tupot Małych Stóp 2 / Happy Feet Two [3D] [Over-Under] [mini-HD] [1080p] [BRRip] [x264.AC3-LEON 345] [Dubbing PL] [TC] [Martinez25]

Mały Nowy Jork - Staten Island *2009* [DVDRip] [RMVB] [Lektor PL]mikael75

Sawa. Mały wielki bohater - Savva. Serdtse voina 2015 [BDRip.XviD-KLiO] [Dubbing PL]




Shoutbox (zawartość shoutboxa widoczna dla zalogowanych użytkowników)


Żaden z plików nie znajduje się na serwerze. Torrenty są własnością użytkowników. Administrator serwisu nie może ponieść konsekwencji za to co użytkownicy wstawiają, lub za to co czynią na stronie. Nie możesz używać tego serwisu do rozpowszechniania lub ściągania materiałów do których nie masz odpowiednich praw lub licencji. Użytkownicy odpowiedzialni są za przestrzeganie tych zasad. profil torrentcity.pl