Jerry Lee Lewis-Last Man Standing Live (2007)[DVDRip 1080p x264 by alE13 DTS/PCM][Eng] torrent

 
Jerry Lee Lewis-Last Man Standing Live (2007)[DVDRip 1080p x264 by alE13 DTS/PCM][Eng] torrent


Pozycję wystawił:
Ishimura
Dodano:05.05.2017
Kategoria:Teledyski
Rozmiar:8.61 GB
Seedów:0
Peerów:3
Pobrań:0

Jerry Lee Lewis-Last Man Standing Live (2007)[DVDRip 1080p x264 by
alE13 DTS/PCM][Eng] torrent


http://i.imgur.com/5EMeorP.jpg

Plik zawiera Sample.

data: 2007
director: Jim Gable
producer: Mitch Owgang
producer [Co-producer]: Phoebe Lewis
mixed by [Stereo And 5.1] – Elliot Scheiner
gatunek: Koncert, Rock & Roll, Country
czas: 1h 41min

opis:

GREAT ........."Fire Man" Jerry Lee Lewis returns!!!!!!!!!

Jerry Lee Lewis is an American rock 'n' roll and country music icon - a singer, songwriter, and pianist
who's been amazing his audiences with his piano pyrotechnics for half a century. Lewis has never stopped
touring, and he still delivers explosive concerts that are unpredictable, exciting, and personal. Following
the critically acclaimed release of Last Man Standing in the fall of 2006, Lewis gathered with friends and
family to perform at a series of private shows in New York and Los Angeles that were filmed for this DVD.

WSPANIAŁY ........."Fire Man" Jerry Lee Lewis wraca!!!!!!!!!

Jerry Lee Lewis amerykańską ikoną Rock & Rolla - piosenkarz, autor tekstów i pianista, który niesamowicie
gra na fortepianie już przez pół wieku. Lewis nigdy nie przestał koncertować, wciąż dostarcza wybuchowych
koncertów, które są nieprzewidywalne, emocjonujące i takie osobiste. Lewis zebrał przyjaciół i rodzinę,
wykonał szereg prywatnych koncertów w Nowym Jorku i Los Angeles, które zostały sfilmowane na tej płytce.

http://i.imgur.com/AReVHOO.jpg
http://i.imgur.com/5YrPs3n.jpg
http://i.imgur.com/56gjRvb.jpg

obsada:

Piano, Vocals – Jerry Lee Lewis
Backing Vocals – Charlotte Gibson, Maxayn Lewis, Stacie Plunk*
Bass – Rick Rosas
Drums – Jim Keltner
Guitar – Ken Lovelace*, Nils Lofgren, Ron Wood
Organ, Vocals – Ivan Neville


tracklist:

DVD
1 –Jerry Lee Lewis Great Balls Of Fire
2 –Jerry Lee Lewis Chantilly Lace
3 –Jerry Lee Lewis, With Tom Jones Green Green Grass Of Home
4 –Jerry Lee Lewis, With Tom Jones End Of The Road
5 –Jerry Lee Lewis, With Solomon Burke Who Will The Next Fool Be
6 –Jerry Lee Lewis, With Solomon Burke Today I Started Lovin' You Again
7 –Jerry Lee Lewis, With Norah Jones Crazy Arms
8 –Jerry Lee Lewis, With Norah Jones Your Cheatin' Heart
9 –Jerry Lee Lewis, With Buddy Guy Hadacol Boogie
10 –Jerry Lee Lewis Don't Put No Headstone On My Grave
11 –Jerry Lee Lewis, With Chris Isaak Somewhere Over The Rainbow
12 –Jerry Lee Lewis, With Chris Isaak Cry
13 –Jerry Lee Lewis, With Ron Wood Rockin' My Life Away
14 –Jerry Lee Lewis Lewis Boogie
15 –Jerry Lee Lewis, With Merle Haggard Bumming Around
16 –Jerry Lee Lewis, With Ivan Neville What'd I Say
17 –Jerry Lee Lewis, With Kris Kristofferson Once More With Feeling
18 –Jerry Lee Lewis, With John Fogerty CC Rider
19 –Jerry Lee Lewis, With John Fogerty & Kris Kristofferson Will The Circle Be Unbroken
20 –Jerry Lee Lewis, With John Fogerty Good Golly Miss Molly
21 –Jerry Lee Lewis, With Ron Wood Trouble In Mind
22 –Jerry Lee Lewis, With Willie Nelson Jambalaya
23 –Jerry Lee Lewis, With Don Henley You Win Again
24 –Jerry Lee Lewis, With Kid Rock Little Queenie
25 –Jerry Lee Lewis, With Kid Rock Honky Tonk Woman
26 –Jerry Lee Lewis, With Ken Lovelace* That Lucky Old Sun
27 –Jerry Lee Lewis Roll Over Beethoven
28 –Jerry Lee Lewis Whole Lotta Shakin' Going On
Bonus Feature
29 –Jerry Lee Lewis With Merle Haggard Goodnight Irene

dane techniczne:

Jerry Lee Lewis-Last Man Standing Live (2007)-alE13.mkv
Format : Matroska
Format version : Version 4 / Version 2
File size : 7.32 GiB
Duration : 1 h 41 min
Overall bit rate : 10.3 Mb/s
Movie name : Jerry Lee Lewis-Last Man Standing Live (2007)-alE13
Encoded date : UTC 2017-03-10 08:49:49
Writing application : mkvmerge v8.1.0 ('Psychedelic Postcard') 64bit
Writing library : libebml v1.3.1 + libmatroska v1.4.2
Cover : Yes
Attachments : cover.jpg

Video
ID : 2
Format : AVC
Format/Info : Advanced Video Codec
Format profile : High@L4
Format settings, CABAC : Yes
Format settings, ReFrames : 2 frames
Format settings, GOP : M=1, N=25
Codec ID : V_MPEG4/ISO/AVC
Duration : 1 h 39 min
Bit rate : 8 198 kb/s
Width : 1 920 pixels
Height : 1 080 pixels
Display aspect ratio : 16:9
Frame rate mode : Constant
Frame rate : 25.000 FPS
Color space : YUV
Chroma subsampling : 4:2:0
Bit depth : 8 bits
Scan type : Progressive
Bits/(Pixel*Frame) : 0.158
Stream size : 5.72 GiB (78%)
Title : Jerry Lee Lewis-Last Man Standing Live (2007)-alE13
Default : Yes
Forced : No

Audio #1
ID : 1
Format : DTS
Format/Info : Digital Theater Systems
Mode : 16
Format settings, Endianness : Big
Codec ID : A_DTS
Duration : 1 h 41 min
Bit rate mode : Constant
Bit rate : 755 kb/s
Channel(s) : 6 channels
Channel positions : Front: L C R, Side: L R, LFE
Sampling rate : 48.0 kHz
Frame rate : 93.750 FPS (512 spf)
Bit depth : 24 bits
Compression mode : Lossy
Stream size : 539 MiB (7%)
Title : Jerry Lee Lewis-Last Man Standing Live (2007)-alE13_DTS
Language : English
Default : Yes
Forced : No

Audio #2
ID : 3
Format : PCM
Codec ID : A_PCM/INT/LIT
Duration : 1 h 39 min
Bit rate mode : Constant
Bit rate : 1 536 kb/s
Channel(s) : 2 channels
Sampling rate : 48.0 kHz
Frame rate : 32.000 FPS (1500 spf)
Bit depth : 16 bits
Stream size : 1.07 GiB (15%)
Title : Jerry Lee Lewis-Last Man Standing Live (2007)-alE13
Language : English
Default : No
Forced : No

Menu
00:00:00.000 : en:(01)00:00:00:000
00:00:52.960 : en:(02)00:00:52:960
00:02:57.920 : en:(03)00:02:57:920
00:05:07.880 : en:(04)00:05:07:880
00:07:47.960 : en:(05)00:07:47:960
00:11:03.280 : en:(06)00:11:03:280
00:13:12.360 : en:(07)00:13:12:360
00:17:59.200 : en:(08)00:17:59:200
00:21:10.120 : en:(09)00:21:10:120
00:22:23.200 : en:(10)00:22:23:200
00:25:26.520 : en:(11)00:25:26:520
00:28:27.760 : en:(12)00:28:27:760
00:32:25.520 : en:(13)00:32:25:520
00:33:33.880 : en:(14)00:33:33:880
00:37:54.160 : en:(15)00:37:54:160
00:42:18.560 : en:(16)00:42:18:560
00:45:52.960 : en:(17)00:45:52:960
00:49:17.840 : en:(18)00:49:17:840
00:50:08.360 : en:(19)00:50:08:360
00:52:44.000 : en:(20)00:52:44:000
00:55:44.400 : en:(21)00:55:44:400
00:58:46.160 : en:(22)00:58:46:160
01:01:26.720 : en:(23)01:01:26:720
01:04:24.840 : en:(24)01:04:24:840
01:06:41.720 : en:(25)01:06:41:720
01:08:53.040 : en:(26)01:08:53:040
01:13:27.520 : en:(27)01:13:27:520
01:16:45.880 : en:(28)01:16:45:880
01:21:11.960 : en:(29)01:21:11:960
01:24:59.120 : en:(30)01:24:59:120
01:27:29.200 : en:(31)01:27:29:200
01:30:05.640 : en:(32)01:30:05:640
01:33:38.320 : en:(33)01:33:38:320
 


Aby dodać komentarz należy się zalogować

Logowanie logowanie

Twoja ocena
Podobne torrenty
Tom & Jerry i Sherlock Holmes (2010) [DVDRip XviD-PolishBits][TC][Dubbing PL]    Jerry Maguire *1996* [1080p Bluray DTHD m2ts] [Napisy i Lektor PL][TC][koll77]    Tom i Jerry i Sherlock Holmes /Tom and Jerry Meet Sherlock Holmes (2010) [PAL] [DVD5] [Dubbing PL+napisy PL]    Tom i Jerry, Robin Hood i jego księżna mysz / Tom & Jerry: Robin Hood and his Merry Mouse *2012* [PAL] [DVD5] [Dubbing i Napisy PL]

Tom & Jerry i Sherlock Holmes (2010) [DVDRip.XviD-PolishBits][TC][Dubbing PL]

Jerry Maguire *1996* [1080p.Bluray.DTHD.m2ts] [Napisy i Lektor PL][TC][koll77]

Tom i Jerry i Sherlock Holmes /Tom and Jerry Meet Sherlock Holmes (2010) [PAL] [DVD5] [Dubbing PL+napisy  PL]

Tom i Jerry, Robin Hood i jego księżna mysz / Tom & Jerry: Robin Hood and his Merry Mouse *2012* [PAL] [DVD5] [Dubbing i Napisy PL]




Shoutbox (zawartość shoutboxa widoczna dla zalogowanych użytkowników)


Żaden z plików nie znajduje się na serwerze. Torrenty są własnością użytkowników. Administrator serwisu nie może ponieść konsekwencji za to co użytkownicy wstawiają, lub za to co czynią na stronie. Nie możesz używać tego serwisu do rozpowszechniania lub ściągania materiałów do których nie masz odpowiednich praw lub licencji. Użytkownicy odpowiedzialni są za przestrzeganie tych zasad. profil torrentcity.pl