Jennifer Lopez: Dance Again (2014)[BDRip 1080p x264 by alE13 AC3/PCM][Eng] torrent

 
Jennifer Lopez: Dance Again (2014)[BDRip 1080p x264 by alE13 AC3/PCM][Eng] torrent


Pozycję wystawił:
Ishimura
Dodano:05.05.2017
Kategoria:Teledyski
Rozmiar:16.99 GB
Seedów:2
Peerów:1
Pobrań:4
pobierz torrent

Jennifer Lopez: Dance Again (2014)[BDRip 1080p x264 by alE13
AC3/PCM][Eng] torrent


http://i.imgur.com/WoIt9Ef.jpg

Plik zawiera Sample.

data: 2014
wydano: USA
reżyseria: Ted Kenney
gatunek: Dokument,Koncert,Pop, Dance, R&B
czas: 1h 25min + 31 min

opis:

Jennifer Lopez: Dance Again offers an insight into one of the most famous entertainers in the world,
combining high-energy musical performances with a raw and candid look at Lopez's personal and professional
life over a defining six-month period. Special behind-the-scenes moments capture the challenge of going
on her first world tour with her two young children, parents and closest friends in tow, beginning
in South America and ending in Puerto Rico, where she held her first concert 11 years earlier.

Koncertowe wersje wielu przebojów. Dokumentalny materiał filmowy i wywiady z Jennifer Lopez
i jej najbliższych przyjaciół. Jennifer Lopez sprzedała ponad 70 milionów płyt 11,8 miliona egzemplarzy albumów
w Stanach Zjednoczonych oraz 11 singli, które stały się światowym numerem jeden na listach przebojów.

http://i.imgur.com/nDRCbuL.jpg
http://i.imgur.com/wX3WYR0.jpg
http://i.imgur.com/50BBaJo.jpg
http://i.imgur.com/9QNvfd7.jpg

obsada:

Jennifer Lopez, Gilbert Saldívar

tracklist:

01. Get Right
02. Papi
03. Do It Well
04. If You Had My Love
05. Love Don't Cost A Thing
06. I'm Into You
07. Goin' In
08. Waiting For Tonight
09. Until It Beats No More
10. On The Floor
11. Let's Get Loud
12. Hold It Don't Drop It
13. No Me Ames
14. Dance Again
15. First Love

dane techniczne opcjonalnie:

Jennifer Lopez-Dance Again (2014)-alE13_(2) .mkv
Format : Matroska
Format version : Version 4 / Version 2
File size : 4.86 GiB
Duration : 31 min
Overall bit rate : 22.0 Mb/s
Movie name : Jennifer Lopez: Dance Again (2014)-alE13
Encoded date : UTC 2017-03-09 11:53:03
Writing application : mkvmerge v7.9.0 ('Birds') 64bit
Writing library : libebml v1.3.1 + libmatroska v1.4.2
Cover : Yes
Attachments : cover.jpg / cover.jpg

Video
ID : 1
Format : AVC
Format/Info : Advanced Video Codec
Format profile : High@L4.1
Format settings, CABAC : Yes
Format settings, ReFrames : 2 frames
Codec ID : V_MPEG4/ISO/AVC
Duration : 31 min
Bit rate : 14.5 Mb/s
Width : 1 920 pixels
Height : 1 080 pixels
Display aspect ratio : 16:9
Frame rate mode : Constant
Frame rate : 23.976 (24000/1001) FPS
Color space : YUV
Chroma subsampling : 4:2:0
Bit depth : 8 bits
Scan type : Progressive
Bits/(Pixel*Frame) : 0.291
Stream size : 3.19 GiB (66%)
Title : Jennifer Lopez: Dance Again (2014)-alE13
Writing library : x264 core 142
Default : Yes
Forced : No
Color range : Limited
Color primaries : BT.709
Transfer characteristics : BT.709
Matrix coefficients : BT.709

Audio #1
ID : 2
Format : PCM
Codec ID : A_PCM/INT/LIT
Duration : 31 min
Bit rate mode : Constant
Bit rate : 6 912 kb/s
Channel(s) : 6 channels
Sampling rate : 48.0 kHz
Frame rate : 32.000 FPS (1500 spf)
Bit depth : 24 bits
Stream size : 1.53 GiB (31%)
Title : Jennifer Lopez: Dance Again (2014)-alE13
Language : English
Default : Yes
Forced : No

Audio #2
ID : 3
Format : AC-3
Format/Info : Audio Coding 3
Mode extension : CM (complete main)
Format settings, Endianness : Big
Codec ID : A_AC3
Duration : 31 min
Bit rate mode : Constant
Bit rate : 640 kb/s
Channel(s) : 6 channels
Channel positions : Front: L C R, Side: L R, LFE
Sampling rate : 48.0 kHz
Frame rate : 31.250 FPS (1536 spf)
Compression mode : Lossy
Stream size : 145 MiB (3%)
Title : Jennifer Lopez: Dance Again (2014)-alE13
Language : English
Default : No
Forced : No

Menu
00:00:00.000 : en: (01)00:00:00:000
00:02:16.636 : en: (02)00:02:16:636
00:03:40.929 : en: (03)00:03:40:929
00:04:58.965 : en: (04)00:04:58:965
00:06:53.246 : en: (05)00:06:53:246
00:09:18.349 : en: (06)00:09:18:349
00:11:16.258 : en: (07)00:11:16:258
00:12:34.545 : en: (08)00:12:34:545
00:14:38.168 : en: (09)00:14:38:168
00:16:42.251 : en: (10)00:16:42:251
00:18:02.789 : en: (11)00:18:02:789
00:21:47.347 : en: (12)00:21:47:347
00:23:46.716 : en: (13)00:23:46:716
00:26:43.560 : en: (14)00:26:43:560
00:28:36.339 : en: (15)00:28:36:339
00:31:37.437 : en: (16)00:31:37:437
 


Aby dodać komentarz należy się zalogować

Logowanie logowanie

Twoja ocena
Podobne torrenty
Zabójcze ciało - Jennifers Body *2009* [DVDRip XviD {1337x}-Noir][ENG][AgusiQ]    Jennifer's Body - Zabójcze ciało (2009/ENG) CAM XviD-CAMELOT [SKULI]    Jennifer 8 - Jennifer Eight *1992* [DVDRip XviD AC3] [Lektor PL]    Jennifer Falls [S01E06] [HDTV] [XviD-AFG] [ENG] [jans12]

Zabójcze ciało - Jennifers Body *2009* [DVDRip.XviD {1337x}-Noir][ENG][AgusiQ]

Jennifer\'s Body - Zabójcze ciało (2009/ENG) CAM.XviD-CAMELOT   [SKULI]

Jennifer 8 - Jennifer Eight *1992* [DVDRip.XviD.AC3] [Lektor PL]

Jennifer Falls [S01E06] [HDTV] [XviD-AFG] [ENG] [jans12]




Shoutbox (zawartość shoutboxa widoczna dla zalogowanych użytkowników)


Żaden z plików nie znajduje się na serwerze. Torrenty są własnością użytkowników. Administrator serwisu nie może ponieść konsekwencji za to co użytkownicy wstawiają, lub za to co czynią na stronie. Nie możesz używać tego serwisu do rozpowszechniania lub ściągania materiałów do których nie masz odpowiednich praw lub licencji. Użytkownicy odpowiedzialni są za przestrzeganie tych zasad. profil torrentcity.pl