Dragon Ball - Saga Pilaf [E01-29] (1986-1989) [BRRip] [RMVB] [Lektor PL] torrent

 
Dragon Ball - Saga Pilaf [E01-29] (1986-1989) [BRRip] [RMVB] [Lektor PL] torrent


Pozycję wystawił:
Lukario007
Dodano:11.07.2015
Kategoria:Anime
Rozmiar:1.97 GB
Seedów:0
Peerów:0
Pobrań:0

Dragon Ball - Saga Pilaf [E01-29] (1986-1989) [BRRip] [RMVB]
[Lektor PL] torrent

[MANGA]


...( Info )...

★ gatunek:Komedia, Przygodowy, Anime
★ saga: Pilaf
★ Paczka odc. 29

http://www.filmweb.pl/serial/Dragon+Ball-1986-94334

...( Opis )...

Gdy Son Goku poznaje legendę Shenlona, czarodziejskiego smoka posiadającego moc spełniania życzeń, wyrusza wraz z Bulmą w poszukiwaniu siedmiu kryształowych kul.

...( Obsada )...

★ Takeshi Aono
★ Toshio Furukawa
★ Shigeru Chiba
★ Kôhei Miyauchi

...( Dane Techniczne )...

Format : RealMedia
File size : 63.8 MiB
Duration : 19mn 11s
Overall bit rate : 454 Kbps

Video
ID : 1
Format : RealVideo 4
Codec ID : RV40
Codec ID/Info : Based on AVC (H.264), Real Player 9
Duration : 19mn 11s
Bit rate : 390 Kbps
Width : 640 pixels
Height : 480 pixels
Display aspect ratio : 4:3
Frame rate : 30.000 fps
Bits/(Pixel*Frame) : 0.042
Stream size : 53.6 MiB (84%)

Audio
ID : 0
Format : Cooker
Codec ID : cook
Codec ID/Info : Based on G.722.1, Real Player 6
Duration : 19mn 13s
Bit rate : 64.1 Kbps
Channel(s) : 2 channels
Sampling rate : 44.1 KHz
Bit depth : 16 bits
Stream size : 8.81 MiB (14%)
 


Aby dodać komentarz należy się zalogować

Logowanie logowanie

Twoja ocena
Podobne torrenty
Przyczajony Tygrys, Ukryty Smok: Miecz Przeznaczenia - Crouching Tiger, Hidden Dragon: Sword of Destiny *2016* [BDRip] [XviD-MX] [Napisy PL]    The Mummy The Tomb Of The Dragon Emperor CAM PROPER XViD-nDn[eng]    Dragon Age Origins: The Witch Hunt DLC v 1 1 (2010/ENG/ADDON/ISO)[TC][coolraper]    "Dragonball Evolution" (2009) READNFO TELESYNC XviD ENG

Przyczajony Tygrys, Ukryty Smok: Miecz Przeznaczenia - Crouching Tiger, Hidden Dragon: Sword of Destiny *2016* [BDRip] [XviD-MX] [Napisy PL]

The.Mummy.The.Tomb.Of.The.Dragon.Emperor.CAM.PROPER.XViD-nDn[eng]

Dragon Age Origins: The Witch Hunt DLC v.1.1 (2010/ENG/ADDON/ISO)[TC][coolraper]

\




Shoutbox (zawartość shoutboxa widoczna dla zalogowanych użytkowników)


Żaden z plików nie znajduje się na serwerze. Torrenty są własnością użytkowników. Administrator serwisu nie może ponieść konsekwencji za to co użytkownicy wstawiają, lub za to co czynią na stronie. Nie możesz używać tego serwisu do rozpowszechniania lub ściągania materiałów do których nie masz odpowiednich praw lub licencji. Użytkownicy odpowiedzialni są za przestrzeganie tych zasad. profil torrentcity.pl