Dragon Ball - Saga Pilaf [E01-29] (1986-1989) [BRRip] [RMVB] [Lektor PL] torrent

 
Dragon Ball - Saga Pilaf [E01-29] (1986-1989) [BRRip] [RMVB] [Lektor PL] torrent


Pozycję wystawił:
Lukario007
Dodano:11.07.2015
Rozmiar:2066.09 MB
Seedów:1
pobierz torrent

Dragon Ball - Saga Pilaf [E01-29] (1986-1989) [BRRip] [RMVB]
[Lektor PL] torrent

[MANGA]

...( Info )...

★ gatunek:Komedia, Przygodowy, Anime
★ saga: Pilaf
★ Paczka odc. 29

http://www.filmweb.pl/serial/Dragon+Ball-1986-94334

...( Opis )...

Gdy Son Goku poznaje legendę Shenlona, czarodziejskiego smoka posiadającego moc spełniania życzeń, wyrusza wraz z Bulmą w poszukiwaniu siedmiu kryształowych kul.

...( Obsada )...

★ Takeshi Aono
★ Toshio Furukawa
★ Shigeru Chiba
★ Kôhei Miyauchi

...( Dane Techniczne )...

Format : RealMedia
File size : 63.8 MiB
Duration : 19mn 11s
Overall bit rate : 454 Kbps

Video
ID : 1
Format : RealVideo 4
Codec ID : RV40
Codec ID/Info : Based on AVC (H.264), Real Player 9
Duration : 19mn 11s
Bit rate : 390 Kbps
Width : 640 pixels
Height : 480 pixels
Display aspect ratio : 4:3
Frame rate : 30.000 fps
Bits/(Pixel*Frame) : 0.042
Stream size : 53.6 MiB (84%)

Audio
ID : 0
Format : Cooker
Codec ID : cook
Codec ID/Info : Based on G.722.1, Real Player 6
Duration : 19mn 13s
Bit rate : 64.1 Kbps
Channel(s) : 2 channels
Sampling rate : 44.1 KHz
Bit depth : 16 bits
Stream size : 8.81 MiB (14%)
 


Aby dodać komentarz należy się zalogować

Logowanie logowanie

Twoja ocena
Podobne torrenty
Martin Solveig & Dragonette - Hello[2010][MP3@320kbps][FC]    Dziewczyna z tatuażem / The Girl With A Dragon Tattoo*2011* [R5 XVID AC3-26K] [ENG] [Martinez25]    Dragon Age II *2011* [Crack-Only] [RELOADED] [TC] [TB]    Dragon's Dogma: Dark Arisen (2016) ENG] [Repack] [SEYTER] [DVD9] [ exe/ bin]

Martin Solveig & Dragonette - Hello[2010][MP3@320kbps][FC]

Dziewczyna z tatuażem / The Girl With A Dragon Tattoo*2011* [R5.XVID.AC3-26K] [ENG] [Martinez25]

Dragon Age II *2011* [Crack-Only] [RELOADED] [TC] [TB]

Dragon\'s Dogma: Dark Arisen (2016) ENG] [Repack] [SEYTER] [DVD9] [.exe/.bin]




Shoutbox (zawartość shoutboxa widoczna dla zalogowanych użytkowników)


Żaden z plików nie znajduje się na serwerze. Torrenty są własnością użytkowników. Administrator serwisu nie może ponieść konsekwencji za to co użytkownicy wstawiają, lub za to co czynią na stronie. Nie możesz używać tego serwisu do rozpowszechniania lub ściągania materiałów do których nie masz odpowiednich praw lub licencji. Użytkownicy odpowiedzialni są za przestrzeganie tych zasad. profil torrentcity.pl