Plan Ucieczki - Escape Plan *2013* [R6] [XViD-Andzio10] [Napisy PL] torrent

 
Plan Ucieczki - Escape Plan *2013* [R6] [XViD-Andzio10] [Napisy PL] torrent


Pozycję wystawił:
jans12
Dodano:22.12.2013
Seedów:4
Peerów:6
pobierz torrent

Plan Ucieczki - Escape Plan *2013* [R6] [XViD-Andzio10] [Napisy PL] torrent

[Thriller, Akcja]

Tytuł: Escape Plan
====================

Ocena: IMDB - 7.1/10 (23.622), Filmweb - 7.1/10 (840)
Produkcja: USA
Gatunek: Thriller, Akcja
Czas trwania: 106 min.
Premiera: 18.07.2013 - Świat
Reżyseria: Mikael Håfström
Scenariusz: Miles Chapman

OPIS:
====================
Ray to specjalista od zabezpieczeń więziennych. W trakcie testowania nowego projektu mężczyzna zostaje pozbawiony kontaktu ze swoją ekipą i zdany na siebie.

OBSADA:
====================
★ Sylvester Stallone ... Ray Breslin
★ Arnold Schwarzenegger ... Rottmayer
★ Jim Caviezel ... Willard Hobbes
★ Vinnie Jones ... Drake
★ 50 Cent ... Hush
★ Amy Ryan ... Abigail Ross
★ Matt Gerald ... Roag
★ Christian Stokes ... Babcock

INFO O FILMIE:
====================
http://www.filmweb.pl/film/Escape+Plan-2013-573524
http://fdb.pl/film/410218-escape-plan
http://www.imdb.com/title/tt1211956

INFORMACJE O PLIKU:
=====================
Video
ID : 0
Format : xvid
Codec ID : xvid
Duration : 1h 47mn
Bit rate : 1 492 Kbps
Width : 640 pixels
Height : 272 pixels
Display aspect ratio : 2.35:1
Frame rate : 23.976 fps
Bits/(Pixel*Frame) : 0.358
Stream size : 1.12 GiB (91%)

Audio
ID : 1
Format : AC-3
Format/Info : Audio Coding 3
Mode extension : CM (complete main)
Format settings, Endianness : Big
Codec ID : 2000
Duration : 1h 47mn
Bit rate mode : Constant
Bit rate : 128 Kbps
Channel count : 2 channels
Channel positions : Front: L R
Sampling rate : 44.1 KHz
Bit depth : 16 bits
Compression mode : Lossy
Stream size : 98.6 MiB (8%)
Alignment : Aligned on interleaves
Interleave, duration : 35 ms (0.84 video frame)
Interleave, preload duration : 34 ms

NAPISY:
napisy PL wklejone w obraz

Description By AgusiQ®
Trailer
Screeny
plan_ucieczki_-_escape_plan_2013_r6_xvid-andzio10_napisy_plplan_ucieczki_-_escape_plan_2013_r6_xvid-andzio10_napisy_plplan_ucieczki_-_escape_plan_2013_r6_xvid-andzio10_napisy_plplan_ucieczki_-_escape_plan_2013_r6_xvid-andzio10_napisy_pl
 


Aby dodać komentarz należy się zalogować

Logowanie logowanie

Twoja ocena
Podobne torrenty
Plan B - The Back-up Plan *2010* [DVDSCR A Release-Lounge H264][ENG][AgusiQ] ♥    Planeta 51 2009 R5 XVID Polski dubbing [nagrywany w kinie]    Geneza planety małp - Rise of the Planet of the Apes *2011* [TS] [XViD–MEM] [ENG] [WU/FSC]    Planeta 51 - Planet 51 *2009* [DVDRip] [XviD] [Napisy PL][Mateusz215]

Plan B - The Back-up Plan *2010* [DVDSCR.A.Release-Lounge.H264][ENG][AgusiQ] ♥

Planeta 51.2009.R5.XVID.Polski dubbing [nagrywany w kinie]

Geneza planety małp - Rise of the Planet of the Apes *2011* [TS] [XViD–MEM] [ENG] [WU/FSC]

Planeta 51 - Planet 51 *2009* [DVDRip] [XviD] [Napisy PL][Mateusz215]





maju80 2013-12-24 11:41:00

brak seedow



35wichciu1 2013-12-27 10:36:43

wałek od kilku dni stoi na niecałe 42%



killer120 2013-12-28 21:12:44

ej co jest czemu brak sedów


Shoutbox


Żaden z plików nie znajduje się na serwerze. Torrenty są własnością użytkowników. Administrator serwisu nie może ponieść konsekwencji za to co użytkownicy wstawiają, lub za to co czynią na stronie. Nie możesz używać tego serwisu do rozpowszechniania lub ściągania materiałów do których nie masz odpowiednich praw lub licencji. Użytkownicy odpowiedzialni są za przestrzeganie tych zasad. profil torrentcity.pl