[3D] Merida waleczna / Brave *2012* [3D] [Over Under] [mini-HD] [1080p] [BluRay] [x264.AC3-LEON 345] [Dubbing PL-Kino] [TC] [Martinez25] torrent

 
[3D] Merida waleczna / Brave *2012*  [3D] [Over Under] [mini-HD] [1080p] [BluRay] [x264.AC3-LEON 345] [Dubbing PL-Kino] [TC] [Martinez25] torrent


Pozycję wystawił:
Martinez25
Dodano:12.11.2012
Rozmiar:3843.71 MB
pobierz torrent

[3D] Merida waleczna / Brave *2012* [3D] [Over Under] [mini-HD]
[1080p] [BluRay] [x264.AC3-LEON 345] [Dubbing PL-Kino] [TC]
[Martinez25] torrent

[Animacja, Przygodowy, Baśń]


====================
Tytuł: Brave
Polski Tytuł: Merida waleczna
====================

Ocena: IMDB - 7.5/10 (40.851), Filmweb - 7.3/10 (8.716)
Produkcja: USA
Gatunek: Animacja, Przygodowy, Baśń
Czas trwania: 100 min.
Premiera: 21.06.2012 - Świat, 17.08.2012 - Polska
Reżyseria: Mark Andrews, Brenda Chapman
Scenariusz: Mark Andrews, Steve Purcell


====================
OBSADA: (głosy)
====================

Emma Thompson - Królowa Elinor
Kelly Macdonald - Księżniczka Merida
Billy Connolly - Król Fergus
Julie Walters - Mądra kobieta
Kevin McKidd - Lord MacGuffin / Młody MacGuffin
Robbie Coltrane - Lord Dingwall
Craig Ferguson - Lord Macintosh

====================
OPIS:
====================

Film opowiada historią szkockiej księżniczki Meridy (Kelly Macdonald), która lekkomyślnie przeciwstawia się swoim rodzicom i pogłębia wiedzę dotyczącą interesującego ją łucznictwa. Przy okazji nieumyślnie naraża królestwo swojego ojca na wielkie niebezpieczeństwo.

====================
INFORMACJE O PLIKU:
====================

Unique ID : 209597929187442202850309193221667619936 (0x9DAF17C26B8A8F3BB3E14075F6BD0460)
Complete name : Brave_3D(Leon 345).mkv
Format : Matroska
Format version : Version 2
File size : 3.67 GiB
Duration : 1h 34mn
Encoding type : 2 pass
Overall bit rate mode : Variable
Overall bit rate : 5 570 Kbps
Encoded date : UTC 2012-11-06 03:51:13
Writing application : mkvmerge v5.7.0 ('The Whirlwind') built on Jul 8 2012 20:08:51
Writing library : libebml v1.2.3 + libmatroska v1.3.0

=========
Video:
=========

ID : 1
Format : AVC
Format/Info : Advanced Video Codec
Format profile : High@L4.0
Format settings, CABAC : Yes
Format settings, ReFrames : 3 frames
Codec ID : V_MPEG4/ISO/AVC
Duration : 1h 34mn
Bit rate mode : Variable
Bit rate : 4 943 Kbps
Maximum bit rate : 15.0 Mbps
Width : 1 920 pixels
Height : 1 080 pixels
Display aspect ratio : 16:9
Frame rate mode : Constant
Frame rate : 23.976 fps
Color space : YUV
Chroma subsampling : 4:2:0
Bit depth : 8 bits
Scan type : Progressive
Bits/(Pixel*Frame) : 0.099
Stream size : 3.17 GiB (87%)
Title : Rip by Leon 345 encoding 2 pass
Writing library : x264 core 125 r2208 d9d2288
Default : Yes
Forced : No

=========
Audio 1:
=========

ID : 2
Format : AC-3
Format/Info : Audio Coding 3
Mode extension : CM (complete main)
Format settings, Endianness : Big
Codec ID : A_AC3
Duration : 1h 34mn
Bit rate mode : Constant
Bit rate : 192 Kbps
Channel(s) : 2 channels
Channel positions : Front: L R
Sampling rate : 48.0 KHz
Bit depth : 16 bits
Compression mode : Lossy
Delay relative to video : 1s 500ms
Stream size : 129 MiB (3%)
Title : AC3 2.0 dubbing PL MD-Kino
Language : Polish
Default : Yes
Forced : Yes

==========
Audio 2:
==========

ID : 3
Format : AC-3
Format/Info : Audio Coding 3
Mode extension : CM (complete main)
Format settings, Endianness : Big
Codec ID : A_AC3
Duration : 1h 34mn
Bit rate mode : Constant
Bit rate : 448 Kbps
Channel(s) : 6 channels
Channel positions : Front: L C R, Side: L R, LFE
Sampling rate : 48.0 KHz
Bit depth : 16 bits
Compression mode : Lossy
Stream size : 302 MiB (8%)
Title : AC3 5.1 Orginal
Language : English
Default : No
Forced : No


====================
INFO O FILMIE:
====================

http://www.disney.pl/merida-waleczna
http://disney.go.com/brave/
http://www.filmweb.pl/film/Merida+waleczna-2012-483796#
http://fdb.pl/film/252682-merida-waleczna
http://filmosfera.pl/index.php?str=film,9927
http://www.imdb.com/title/tt1217209/

====================
DODATKOWE INFO:
====================

Film w wersji 3D Over-Under.
Do odtworzenia filmu WYMAGANY odpowiedni sprzęt (TV 3D).

Film zawiera dwie ścieżki dżwiękowe(Dual audio)

Audio 1: Dubbing PL
Audio 2: English (do tego Audio NAPISY PL)

Description By Martinez25
Trailer
 


Aby dodać komentarz należy się zalogować

Logowanie logowanie

Twoja ocena
Podobne torrenty
My Mom's New Boyfriend [2008] DVDRIP[ENG] oloxxl    Gotowe na wszystko - Desperate Housewives S04E01 [DVBRip] [Lektor PL]    Dwóch i pół - Two and a Half Men [S07E17][HDTV XviD-LOL][ENG][4 SERVERY][AgusiQ] ♥    Madagaskar 2 / Madagascar 2: Escape 2 Africa [DVD5] [PAL] [Dubbing PL] [MENU]

My Mom\'s New Boyfriend. [2008].DVDRIP[ENG].oloxxl

Gotowe na wszystko - Desperate Housewives S04E01 [DVBRip] [Lektor PL]

Dwóch i pół - Two and a Half Men [S07E17][HDTV.XviD-LOL][ENG][4 SERVERY][AgusiQ] ♥

Madagaskar 2 / Madagascar 2: Escape 2 Africa [DVD5] [PAL] [Dubbing PL] [MENU]




Shoutbox


Żaden z plików nie znajduje się na serwerze. Torrenty są własnością użytkowników. Administrator serwisu nie może ponieść konsekwencji za to co użytkownicy wstawiają, lub za to co czynią na stronie. Nie możesz używać tego serwisu do rozpowszechniania lub ściągania materiałów do których nie masz odpowiednich praw lub licencji. Użytkownicy odpowiedzialni są za przestrzeganie tych zasad. profil torrentcity.pl