Aviator - The Aviator *2004* [DVDRip.XviD-NIKONRG][ENG]schuldiner torrent

 
Aviator - The Aviator *2004* [DVDRip.XviD-NIKONRG][ENG]schuldiner torrent


Pozycję wystawił:
schuldiner
Dodano:26.12.2011
Kategoria:DivX / XviD
Rozmiar:700.52 MB
Seedów:
Peerów:
Pobrań:
pobierz torrent

Aviator - The Aviator *2004* [DVDRip.XviD-NIKONRG][ENG]schuldiner torrent

[biograficzny]



produkcja: Japonia, Niemcy, USA
gatunek: Biograficzny, Dramat
data premiery: 2005-02-18 (Polska), 2004-12-14 (Świat)
reżyseria: Martin Scorsese
scenariusz: John Logan
zdjęcia: Robert Richardson
muzyka: Howard Shore
od lat: 15
czas trwania: 163 minuty

Opis:

Historia burzliwego życia jednego z najbardziej fascynujących osobowości dwudziestowiecznej Ameryki. Lata 20. Do Hollywood przybywa młody, zafascynoany kinem milioner Howard Hughes (Leonardo DiCaprio). Postanawia wyreżyserować film. "Aniołowie piekieł" odnoszą sukcesi Hughes z dnia na dzień staje sie gwiazda. Inwestuje w linie lotnicze TWA. Jest pilotem i sam testuje wyprodukowane przez siebie samoloty. Milioner otacza się pięknymi kobietami - ma romans z Jean Harlow(Gwen Stefani). Potem przez kilka lat jego towarzyszką jest Katharine Hepburn(Cate Blanchett). Hoghes wiąże sie w końcu z Avą Gardner(Kate Beckinsale). Ich związek z przerwami trwa prawie 20 lat.

Obsada:

Leonardo DiCaprio - Howard Hughes
Cate Blanchett - Katharine Hepburn
Kate Beckinsale - Ava Gardner
Adam Scott - Johnny Meyer
Kelli Garner - Faith Domergue
Alec Baldwin - Juan Trippe
Gwen Stefani - Jean Harlow
Ian Holm - Profesor Fitz
Alan Alda - Senator Ralph Owen Brewster
Matt Ross - Glenn Odekirk
Josie Maran - Thelma

Info:

VIDEO INFORMATION
__________________
Format: MPEG-4 Visual
Format profile: Streaming Video@L1
Format settings, BVOP: Yes
Format settings, QPel: No
Format settings, GMC: No warppoints
Format settings, Matrix: Custom
Codec ID: XVID
Codec ID/Hint: XviD
Duration: 2h 43mn
Bit rate: 478 Kbps
Width: 544 pixels
Height: 240 pixels
Display aspect ratio: 2.25
Frame rate: 25.000 fps
Resolution: 8 bits
Colorimetry: 4:2:0
Scan type: Progressive
Bits/(Pixel*Frame):0.147
Stream size: 558 MiB (80%)

__________________
AUDIO INFORMATION
__________________
Format: MPEG Audio
Format version: Version 1
Format profile: Layer 3
Codec ID: 55
Codec ID/Hint: MP3
Duration: 2h 43mn
Bit rate mode: Variable
Bit rate: 109 Kbps
Minimum bit rate: 128 Kbps
Channel(s): 2 channels
Sampling rate: 48.0 KHz
Resolution: 16 bits
Stream size: 127 MiB (18%)
Writing library: LAME3.97
Encoding settings: ABR

napisy pl szukaj na:http://www.napiprojekt.pl/
 


Aby dodać komentarz należy się zalogować

Logowanie logowanie

Twoja ocena
Podobne torrenty
Lotnik - The Aviator (1985) [720p] [HDTV] [XViD] [AC3-H1] [Lektor PL]    Aviator - AirBorne Episode #25 [24 09 2013] [mp3@320kbps]    The Graviators - The Graviators *2009* [mp3@320kbps][TC][irup★]    Aviator *2004* [DVDRip] [XViD] [Lektor PL] [mikael75]

Lotnik - The Aviator (1985) [720p] [HDTV] [XViD] [AC3-H1] [Lektor PL]

Aviator - AirBorne Episode #25 [24.09.2013] [mp3@320kbps]

The Graviators - The Graviators *2009* [mp3@320kbps][TC][irup★]

Aviator *2004* [DVDRip] [XViD] [Lektor PL] [mikael75]




Shoutbox (zawartość shoutboxa widoczna dla zalogowanych użytkowników)


Żaden z plików nie znajduje się na serwerze. Torrenty są własnością użytkowników. Administrator serwisu nie może ponieść konsekwencji za to co użytkownicy wstawiają, lub za to co czynią na stronie. Nie możesz używać tego serwisu do rozpowszechniania lub ściągania materiałów do których nie masz odpowiednich praw lub licencji. Użytkownicy odpowiedzialni są za przestrzeganie tych zasad. profil torrentcity.pl