Hitler: Narodziny zła / Hitler: The Rise of Evil CZĘŚĆ 1 (2003) [720p.BluRay.x263.AC-3][NAPISY PL][ENG][HF][p@czos]

 
Hitler: Narodziny zła / Hitler: The Rise of Evil  CZĘŚĆ 1 (2003) [720p.BluRay.x263.AC-3][NAPISY PL][ENG][HF][p@czos]


Pozycję wystawił:
p@czos
Dodano:12.02.2011

Hitler: Narodziny zła / Hitler: The Rise of Evil CZĘŚĆ 1
(2003) [720p.BluRay.x263.AC-3][NAPISY PL][ENG][HF][p@czos]

[Biograficzny, Dramat historyczny]

reżyseria: Christian Duguay
scenariusz: John Pielmeier,G. Ross Parker
premiera: 18 maja 2003 (Świat) 2003-05-18
produkcja: Kanada, USA
gatunek: Biograficzny, Dramat historyczny

Obsada:
Robert Carlyle: Adolf Hilter
Stockard Channing: Klara Hitler
Peter Stormare: Ernst Rohm
Liev Schreiber: Ernst Hanfstaengl
Matthew Modine: Fritz Gerlich
Friedrich von Thun: Generał Erich von Ludendorff
Liliana Komorowska: Baronowa

Opowieść o Adolfie Hitlerze. Każdy wie, że jest on jedną z najbardziej kontrowersyjnych postaci w nowożytnej historii świata. W filmie przedstawione zostały jego losy od czasów dzieciństwa, poprzez karierę w niemieckiej partii narodowosocjalistycznej, aż do zdobycia władzy nad Niemcami. Ale sam film przybliża także losy zwykłych Niemców. Poznajemy historie m.in. dziennikarza Fritza Gerlicha, który starał się przekonać rodaków, że Hitler jest niebezpieczny, oraz małżeństwa Ernsta i Heleny Hanfstaenglów, których związek rozpadał się z powodu odmiennych poglądów na sukcesy nazistów.

General:
Format : Matroska
File size : 4.37 GiB
Duration : 1h 28mn
Overall bit rate : 7 051 Kbps
Writing library : libebml v0.7.7 + libmatroska v0.8.1
Video #1
ID : 1
Format : AVC
Format/Info : Advanced Video Codec
Format profile : High@L4.1
Format settings, CABAC : Yes
Format settings, ReFrames : 5 frames
Muxing mode : Container profile=Unknown@4.1
Codec ID : V_MPEG4/ISO/AVC
Duration : 1h 28mn
Bit rate : 6 271 Kbps
Nominal bit rate : 6 411 Kbps
Width : 1 280 pixels
Height : 720 pixels
Display aspect ratio : 16:9
Frame rate : 25.000 fps
Resolution : 24 bits
Colorimetry : 4:2:0
Scan type : Progressive
Bits/(Pixel*Frame) : 0.272
Stream size : 3.89 GiB (89%)
Language : English
Audio #2
ID : 2
Format : AC-3
Format/Info : Audio Coding 3
Codec ID : A_AC3
Duration : 1h 28mn
Bit rate mode : Constant
Bit rate : 640 Kbps
Channel(s) : 2 channels
Channel positions : L R
Sampling rate : 48.0 KHz
Stream size : 407 MiB (9%)
Title : English
Language : English
Text #3
ID : 3
Format : UTF-8
Codec ID : S_TEXT/UTF8
Codec ID/Info : UTF-8 Plain Text
Title : Dutch
Language : Dutch

POLSKIE NAPISY .srt

Tylko zalogowani użytkownicy mają dostęp do linków
Trailer
Screeny
hitler_narodziny_zla__hitler_the_rise_of_evil__cz_1br_2003_720p_bluray_x263_ac-3napisy_plenghfpczos_
 


Aby dodać komentarz należy się zalogować

Logowanie logowanie

Twoja ocena

p@czos 2011-02-12 15:06:00

CZĘŚĆ DRUGA

http://torrentcity.pl/torrenty/opis/id/128216


Shoutbox


Żaden z plików nie znajduje się na serwerze. Torrenty są własnością użytkowników. Administrator serwisu nie może ponieść konsekwencji za to co użytkownicy wstawiają, lub za to co czynią na stronie. Nie możesz używać tego serwisu do rozpowszechniania lub ściągania materiałów do których nie masz odpowiednich praw lub licencji. Użytkownicy odpowiedzialni są za przestrzeganie tych zasad. profil torrentcity.pl