Mord podczas nudnego przyjęcia / Slumber Party Massacre (1982) [DVDRip.Xvid-LKRG][ENG][TC] torrent

 
Mord podczas nudnego przyjęcia /  Slumber Party Massacre (1982) [DVDRip.Xvid-LKRG][ENG][TC] torrent


Pozycję wystawił:
TheCrow
Dodano:18.10.2010
Kategoria:DivX / XviD
Rozmiar:674.52 MB
Seedów:0
Peerów:0
Pobrań:0

Mord podczas nudnego przyjęcia / Slumber Party Massacre (1982)
[DVDRip.Xvid-LKRG][ENG][TC] torrent

[Horror, Komedia]


OCENA:
Filmweb - 6.2/10 (26)

reżyseria: Amy Holden Jones
scenariusz: Rita Mae Brown
premiera: 12 listopada 1982 (Świat) 1982-11-12
produkcja: USA
gatunek: Horror, Komedia

OPIS:
Pewna osiemnastolatka zostaje sama w domu i postanawia urządzić małą imprezę dla koleżanek, wśród których jest nowa sąsiadka. Ponieważ wśród dziewczyn dochodzi do małego spięcia o to, że jest ona lepszą koszykarką, dziewczyna postanawia zostać w domu (który znajduje się po przeciwnej stronie ulicy). Tymczasem z więzienia ucieka pięciokrotny morderca, który postanawia urządzić sobie polowanie na niczego nie podejrzewające nastolatki i tylko odtrącona dziewczyna z naprzeciwka może uratować imprezowiczki.

OBSADA:
Michelle Michaels ...Trish Devereaux
Robin Stille Robin Stille ...Valerie 'Val' Bates
Michael Villella Michael Villella ...Russ Thorn
Debra Deliso Debra Deliso ...Kimberly 'Kim' Clarke
Andree Honore Andree Honore ...Jackie
Jennifer Meyers Jennifer Meyers ...Courtney Bates
Joseph Alan Johnson Joseph Alan Johnson ...Neil



PARAMETRY:

Video: ID : 0
Format : MPEG-4 Visual
Format profile : Simple@L3
Format settings, BVOP : No
Format settings, QPel : No
Format settings, GMC : No warppoints
Format settings, Matrix : Default (H.263)
Codec ID : XVID
Codec ID/Hint : XviD
Duration : 1h 14mn
Bit rate : 1 126 Kbps
Width : 720 pixels
Height : 372 pixels
Display aspect ratio : 1.935
Frame rate : 23.976 fps
Resolution : 8 bits
Colorimetry : 4:2:0
Scan type : Progressive
Bits/(Pixel*Frame) : 0.175
Stream size : 601 MiB (89%)
Writing library : XviD 1.2.1 (UTC 2008-12-04)


Audio: ID : 1
Format : MPEG Audio
Format version : Version 1
Format profile : Layer 3
Mode : Joint stereo
Format_Settings_ModeExtension : MS Stereo
Codec ID : 55
Codec ID/Hint : MP3
Duration : 1h 14mn
Bit rate mode : Constant
Bit rate : 128 Kbps
Channel(s) : 2 channels
Sampling rate : 48.0 KHz
Stream size : 68.3 MiB (10

Duration:1:15
Release Date:1982
Language:English
Trailer
Screeny
mord_podczas_nudnego_przyjecia___slumber_party_massacre_1982br_dvdrip_xvid-lkrgengtcmord_podczas_nudnego_przyjecia___slumber_party_massacre_1982br_dvdrip_xvid-lkrgengtcmord_podczas_nudnego_przyjecia___slumber_party_massacre_1982br_dvdrip_xvid-lkrgengtc
 


Aby dodać komentarz należy się zalogować

Logowanie logowanie

Twoja ocena
Podobne torrenty
M jak morderca - Hangman (2017) [WEB-DL] [x264-FGT] [ENG]    Mordercza Strona - Death Tube *2010* [DVDRip XviD-miguel] [Kino Azja] [Napisy ENG] [TC]    Egzamin z morderstwa - Tesis sobre un homicidio *2013* [BRRip] [XviD-BiDA] [Lektor PL] [AgusiQ]    Morderca zostawia ślad (1967) [TVRip] [XviD] [AC-3] [PL]

M jak morderca - Hangman (2017) [WEB-DL] [x264-FGT] [ENG]

Mordercza Strona - Death Tube *2010* [DVDRip.XviD-miguel] [Kino Azja] [Napisy ENG] [TC]

Egzamin z morderstwa - Tesis sobre un homicidio *2013* [BRRip] [XviD-BiDA] [Lektor PL] [AgusiQ]

Morderca zostawia ślad (1967) [TVRip] [XviD] [AC-3] [PL]




Shoutbox (zawartość shoutboxa widoczna dla zalogowanych użytkowników)


Żaden z plików nie znajduje się na serwerze. Torrenty są własnością użytkowników. Administrator serwisu nie może ponieść konsekwencji za to co użytkownicy wstawiają, lub za to co czynią na stronie. Nie możesz używać tego serwisu do rozpowszechniania lub ściągania materiałów do których nie masz odpowiednich praw lub licencji. Użytkownicy odpowiedzialni są za przestrzeganie tych zasad. profil torrentcity.pl